img image001 image001 image001 image001 image001 image001 image001 image001 image001 image001 image001 image001 image001 image001 image001 image001

Planets Sun Sun Sun
Статистика раздачи
Автор: Nickolas3434 | Размер: 1.61 ГБ | Добавлен: 26 апр 2017
Раздают: 28    Качают: 5
Скачать торрент
Скачать торрент
Описание торрента

СообщениеДобавлено: 26 апр 2017 

Информация о фильме
Название: Астробой
Оригинальное название: Astro Boy
Год выхода: 2009
Жанр: мультфильм, фантастика, боевик, семейный
Режиссер: Дэвид Бауэрс
В ролях: Шарлиз Терон, Фредди Хаймор, Райан Стайлз, Юджин Леви, Николас Кейдж, Дональд Сазерленд, Билл Найи, Дэвид Алан Грир, Алан Тьюдик, Ньюэлл Александр.
О фильме:
В космическом мегаполисе Метро живет гениальный ученый доктор Тенма. Оплакивая своего погибшего сына, он создает Астробоя, мальчика-робота, наделенного самыми лучшими человеческими качествами и сверхъестественными способностями супер-героя. Но каково же было разочарование Астробоя, когда он узнал, что он… не настоящий человек.
В это время Астробой попадает в поле зрения преступных военных кругов, которые хотят использовать силу маленького робота для захвата Земли…
General
Unique ID : 49821912706806208477907830694487679132 (0x257B59F286136EC13C67B87F6A76609C)
Complete name : D:Астробой.2009.BDRip-AVC.mkv
Format : Matroska
Format version : Version 4 / Version 2
File size : 1.61 GiB
Duration : 1 h 33 min
Overall bit rate : 2 456 kb/s
Encoded date : UTC 2017-04-25 07:21:42
Writing application : Lavf57.57.100
Writing library : Lavf57.57.100 / Lavf57.57.100
ErrorDetectionType : Per level 1
Video
ID : 1
Format : AVC
Format/Info : Advanced Video Codec
Format profile : High@L4.1
Format settings, CABAC : Yes
Format settings, ReFrames : 2 frames
Codec ID : V_MPEG4/ISO/AVC
Duration : 1 h 33 min
Bit rate : 1 959 kb/s
Width : 1 152 pixels
Height : 490 pixels
Display aspect ratio : 2.35:1
Frame rate mode : Constant
Frame rate : 23.976 (24000/1001) FPS
Color space : YUV
Chroma subsampling : 4:2:0
Bit depth : 8 bits
Scan type : Progressive
Bits/(Pixel*Frame) : 0.145
Stream size : 1.28 GiB (80%)
Writing library : Lavc57.66.101 nvenc_h264
Default : Yes
Forced : No
DURATION : 01:33:48.623000000
Audio
ID : 2
Format : AC-3
Format/Info : Audio Coding 3
Format settings, Endianness : Big
Codec ID : A_AC3
Duration : 1 h 33 min
Bit rate mode : Constant
Bit rate : 448 kb/s
Channel(s) : 6 channels
Channel positions : Front: L C R, Side: L R, LFE
Sampling rate : 48.0 kHz
Frame rate : 31.250 FPS (1536 spf)
Bit depth : 16 bits
Compression mode : Lossy
Stream size : 301 MiB (18%)
Language : Russian
Service kind : Complete Main
Default : Yes
Forced : No
DURATION : 01:33:46.560000000
Menu
00:00:00.000 : :Глава 01
00:10:00.000 : :Глава 02
00:20:00.000 : :Глава 03
00:30:00.000 : :Глава 04
00:40:00.000 : :Глава 05
00:50:00.000 : :Глава 06
01:00:00.000 : :Глава 07
01:10:00.000 : :Глава 08
01:20:00.000 : :Глава 09
01:30:00.000 : :Глава 10


Страна: США, Япония, Гонконг
Продолжительность: 01:33:49
Перевод: Профессиональный (полное дублирование)
Файл
Кодек: H264
Качество: BDRip-AVC
Видео: 1 959 kb/s, 1152x490, 23.976fps, high L4.1, yuv420p
Звук: Russian, ac3, 48000 Hz, 5.1, 448 kb/s
Субтитры: нет



   Похожие торренты   Торрент   Размер 
В этой теме нет новых непрочитанных сообщений. Астробой / Astro Boy (2009) BDRip 720 от SuperMin

55 | 14

2.18 ГБ

В этой теме нет новых непрочитанных сообщений. Astro D - Astro Navigation (2015) MP3

19 | 4

149.82 МБ

В этой теме нет новых непрочитанных сообщений. Астро-зомби / The Astro-Zombies (1968) BDRip 720p | L1

3 | 0

4.12 ГБ

В этой теме нет новых непрочитанных сообщений. Astro Lords: Oort Cloud [v.1.3.1] (2014) PC

14 | 3

260.77 МБ

В этой теме нет новых непрочитанных сообщений. Astro Lords: Oort Cloud [1.4.0] (2014) PC

12 | 1

898.21 МБ

В этой теме нет новых непрочитанных сообщений. Astro Lords: Oort Cloud [1.3.8] (2014) PC

1 | 2

860.75 МБ

В этой теме нет новых непрочитанных сообщений. Astro Lords: Oort Cloud [v.1.2.4] (2014) PC

18 | 2

915.51 МБ




Вы не можете начинать темы
Вы не можете отвечать на сообщения
Вы не можете редактировать свои сообщения
Вы не можете удалять свои сообщения
Вы не можете добавлять вложения

Перейти:  
 Вход
ppkBB3cker v.2 © 2008-2014 @ PPK
[ Time : 0.021s | 18 Queries | GZIP : Off ]

cron