img image001 image001 image001 image001 image001 image001 image001 image001 image001 image001 image001 image001 image001 image001 image001 image001

Planets Sun Sun Sun
Статистика раздачи
Автор: Nickolas3434 | Размер: 3.04 ГБ | Добавлен: 07 май 2017
Раздают: 21    Качают: 4
Скачать торрент
Скачать торрент
Описание торрента

СообщениеДобавлено: 07 май 2017 

Информация о фильме
Название: Страх[и] темноты / Страхи темноты
Оригинальное название: Peur(s) du noir
Год выхода: 2007
Жанр: мультфильм, ужасы, детектив, арт-хаус
Режиссер: Блатч, Чарльз Бернс, Мари Кайу, Пьер Ди Сиулло, Лоренцо Маттотти, Ричард МакГуайр
В ролях: Джил Альма, Ор Атика, Франсуа Кретон, Гийом Депардье, Сара-Лора Эстранья, Николя Ферумон, Николь Гарсия, Артур Х., Кристиан Эк, Кристиан Хинкер

О фильме:
Уникальный анимационный проект, объединивший лучших художников в жанре комиксов. Впервые им было предложено «выложить» на кинопленку мурашки по коже, обнаженные нервы и дрожь потных рук — все, что связано с самым древним человеческим страхом — страхом темноты.
Прикосновение паучьих лапок, странные звуки в пустом доме, ощущение чужого присутствия и собачий вой в тишине ночи… Стильный черно-белый кошмар, который не стоит смотреть в одиночестве на сон грядущий.



Страна: Франция
Студия: Cofinova 3, La Parti Productions, Prima Linéa Productions, SCOPE Invest, Scope Pictures
Продолжительность: 01:22:41
Перевод: Профессиональный (многоголосный, закадровый)
Файл
Кодек: MPEG2
Качество: DVDRemux
Видео: 720x480@852x480; 4615 Кбит/сек; 23,976 кадра/сек; 0.556
Звук:
#1. AC3; 48,0 КГц; 192 Кбит/сек; 2 канала | MVO
#2. AC3; 48,0 КГц; 448 Кбит/сек; 6 каналов; Front: L C R, Side: L R, LFE | French
Субтитры: Русские
Общее
Уникальный идентификатор : 200361959175780727386798107507165653060 (0x96BC4F47CBD306ACBD085E231A566844)
Полное имя : D:Фильмы____Страх[и] темноты (2007) DVDRemux P.mkv
Формат : Matroska
Версия формата : Version 4 / Version 2
Размер файла : 3,04 Гбайт
Продолжительность : 1 ч. 22 м.
Режим общего битрейта : Переменный
Общий поток : 5261 Кбит/сек
Дата кодирования : UTC 2017-05-06 23:32:43
Программа кодирования : mkvmerge v9.8.0 ('Kuglblids') 64bit
Библиотека кодирования : libebml v1.3.4 + libmatroska v1.4.5
Видео
Идентификатор : 1
Формат : MPEG Video
Версия формата : Version 2
Профиль формата : Main@Main
Параметр BVOP формата : Да
Параметр матрицы формата : Выборочная
Параметр GOP формата : Variable
Идентификатор кодека : V_MPEG2
Идентификатор кодека/Информация : MPEG 1 or 2 Video
Продолжительность : 1 ч. 22 м.
Вид битрейта : Переменный
Битрейт : 4615 Кбит/сек
Максимальный битрейт : 9800 Кбит/сек
Ширина : 720 пикселей
Высота : 480 пикселей
Соотношение сторон : 16:9
Режим частоты кадров : Переменный
Частота кадров : 24,000 кадра/сек
Частота кадров в оригинале : 23,976 (24000/1001) кадра/сек
Цветовое пространство : YUV
Субдискретизация насыщенности : 4:2:0
Битовая глубина : 8 бит
Тип развёртки : Прогрессивная
Порядок развёртки : 2:3 Pulldown
Метод сжатия : С потерями
Бит/(Пиксели*Кадры) : 0.556
Временной код первого кадра : 00:59:59;00
Оригинал временного кода : Group of pictures header
Размер потока : 2,67 Гбайт (88%)
Default : Да
Forced : Нет
Аудио #1
Идентификатор : 2
Формат : AC-3
Формат/Информация : Audio Coding 3
Расширение режима : CM (complete main)
Параметр Endianness формата : Big
Идентификатор кодека : A_AC3
Продолжительность : 1 ч. 22 м.
Вид битрейта : Постоянный
Битрейт : 192 Кбит/сек
Каналы : 2 канала
Расположение каналов : Front: L R
Частота : 48,0 КГц
Частота кадров : 31,250 кадров/сек (1536 spf)
Битовая глубина : 16 бит
Метод сжатия : С потерями
Размер потока : 113 Мбайт (4%)
Заголовок : MVO
Язык : Russian
Default : Да
Forced : Нет
Аудио #2
Идентификатор : 3
Формат : AC-3
Формат/Информация : Audio Coding 3
Расширение режима : CM (complete main)
Параметр Endianness формата : Big
Идентификатор кодека : A_AC3
Продолжительность : 1 ч. 22 м.
Вид битрейта : Постоянный
Битрейт : 448 Кбит/сек
Каналы : 6 каналов
Расположение каналов : Front: L C R, Side: L R, LFE
Частота : 48,0 КГц
Частота кадров : 31,250 кадров/сек (1536 spf)
Битовая глубина : 16 бит
Метод сжатия : С потерями
Размер потока : 265 Мбайт (9%)
Заголовок : Original
Язык : French
Default : Нет
Forced : Нет
Текст
Идентификатор : 4
Формат : UTF-8
Идентификатор кодека : S_TEXT/UTF8
Идентификатор кодека/Информация : UTF-8 Plain Text
Продолжительность : 1 ч. 15 м.
Битрейт : 48 бит/сек
Count of elements : 417
Размер потока : 26,9 Кбайт (0%)
Язык : Russian
Default : Нет
Forced : Нет
Меню
00:00:00.000 : :Глава 01
00:00:01.000 : :Глава 02
00:00:11.000 : :Глава 03
00:02:39.500 : :Глава 04
00:04:43.067 : :Глава 05
00:05:32.001 : :Глава 06
00:23:35.001 : :Глава 07
00:24:56.701 : :Глава 08
00:26:20.568 : :Глава 09
00:26:50.502 : :Глава 10
00:31:33.502 : :Глава 11
00:33:17.502 : :Глава 12
00:40:43.502 : :Глава 13
00:42:06.502 : :Глава 14
00:55:39.502 : :Глава 15
00:57:13.202 : :Глава 16
00:59:17.502 : :Глава 17
01:16:22.835 : :Глава 18



   Похожие торренты   Торрент   Размер 
В этой теме нет новых непрочитанных сообщений. Страх[и] темноты / Страхи темноты / Peur(s) du noir (2007) DVDRip-AVC | P

45 | 5

1.46 ГБ

В этой теме нет новых непрочитанных сообщений. Страх[и] темноты и не только / Peur(s) du noir (2007) DVDRip | P

90 | 6

1.04 ГБ

В этой теме нет новых непрочитанных сообщений. Страх темноты / The Fear of Darkness (2014) HDRip | L1

110 | 7

1.06 ГБ

В этой теме нет новых непрочитанных сообщений. Страх темноты / The Fear of Darkness (2015) HDRip от MegaPeer | iTunes

305 | 3

1.45 ГБ

В этой теме нет новых непрочитанных сообщений. Страх темноты / The Fear of Darkness (2015) HDRip от MegaPeer | iTunes

36 | 0

745.25 МБ

В этой теме нет новых непрочитанных сообщений. Страх темноты / The Fear of Darkness (2015) BDRip 1080p | iTunes

10 | 0

6.78 ГБ

В этой теме нет новых непрочитанных сообщений. Страх воды / Страх перед водой / La peur de l'eau (2011) DVDRip | L2

291 | 35

1.46 ГБ




Вы не можете начинать темы
Вы не можете отвечать на сообщения
Вы не можете редактировать свои сообщения
Вы не можете удалять свои сообщения
Вы не можете добавлять вложения

Перейти:  
 Вход
ppkBB3cker v.2 © 2008-2014 @ PPK
[ Time : 0.033s | 16 Queries | GZIP : Off ]

cron