img image001 image001 image001 image001 image001 image001 image001 image001 image001 image001 image001 image001 image001 image001 image001 image001

Planets Sun Sun Sun
Статистика раздачи
Автор: Nickolas3434 | Размер: 1.34 ГБ | Добавлен: 05 июн 2017
Раздают: 67    Качают: 9
Скачать торрент
Скачать торрент
Описание торрента

СообщениеДобавлено: 05 июн 2017 

Информация о фильме
Название: Футурама: В дикие зеленые дали
Оригинальное название: Futurama: Into the Wild Green Yonder
Год выхода: 2009
Жанр: Фантастика, комедия, мультфильм, полнометражный
Режиссер: Питер Аванзино
В ролях: Билли Уэст, Кэти Сагал, Джон Ди Маджио, Тресс МакНилл, Морис ЛаМарш, Фил ЛаМарр, Лорен Том, Дэвид Херман, Доун Льюис, Снуп Догг
О фильме:
В этой серии ФУТУРАМЫ, атакуют злые силы, возрастом старше чем сама история, чтобы помешать наступлению новой великолепной Зеленой Эры. Более того, Бендер влюбляется в замужнего женоробота. Лила пытается уйти от закона - закона самого Зэппа Браннигана. Фрай, как обычно - последняя надежда всей вселенной. И его вербуют для ультра-сверх-секретного задания. Неужели это - конец команды Планетного Экспресса?! Отправляемся в Дикие Зеленые Дали…!

Страна: США
Студия: 20th Century Fox Television
Продолжительность: 01:29:16
Перевод: Профессиональный (многоголосый, закадровый)
Файл
Кодек: x264
Качество: BDRip 720p
Видео: 1280x720, 1714 Kbps, 23.976 fps
Звук: 48 kHz, AC3, 6 ch, 384 Kbps
Субтитры:
Русские, английские
Общее
Уникальный идентификатор : 180944101297404257260271745164039401851 (0x882090F8B3B3F1728D04081A702FB17B)
Полное имя : G:Раздача2Футурама. В дикие зеленые дали (мульт). 2009.BDrip720p.HY.TELEPORT.mkv
Формат : Matroska
Версия формата : Version 4 / Version 2
Размер файла : 1,34 Гбайт
Продолжительность : 1 ч. 29 м.
Общий поток : 2141 Кбит/сек
Дата кодирования : UTC 2017-06-04 04:46:54
Программа кодирования : mkvmerge v8.5.2 ('Crosses') 32bit
Библиотека кодирования : libebml v1.3.3 + libmatroska v1.4.4
Примечание : x264 [info]: frame I:1217 Avg QP:10.31 size:199456 / x264 [info]: frame P:30848 Avg QP:14.09 size: 18533 / x264 [info]: frame B:96360 Avg QP:15.96 size: 3744 / x264 [info]: consecutive B-frames: 3.1% 4.3% 12.4% 31.7% 17.2% 10.6% 5.3% 4.3% 3.8% 7.3% / x264 [info]: ref P L0: 64.4% 2.5% 13.2% 6.0% 3.9% 3.5% 2.6% 2.0% 1.9% 0.1% 0.0%
Attachements : Cover
Encoding Gui : COMPANY NAME
Encoded by : -=TELEPORT=-
Original source form/Name : Футурама (В дикие зеленые дали).2009.Blu-Ray Remux
Видео
Идентификатор : 1
Формат : AVC
Формат/Информация : Advanced Video Codec
Профиль формата : High@L4.1
Параметр CABAC формата : Да
Параметр ReFrames формата : 9 кадров
Идентификатор кодека : V_MPEG4/ISO/AVC
Продолжительность : 1 ч. 29 м.
Битрейт : 1714 Кбит/сек
Ширина : 1280 пикселей
Высота : 720 пикселей
Соотношение сторон : 16:9
Режим частоты кадров : Постоянный
Частота кадров : 23,976 кадра/сек
Цветовое пространство : YUV
Субдискретизация насыщенности : 4:2:0
Битовая глубина : 8 бит
Тип развёртки : Прогрессивная
Бит/(Пиксели*Кадры) : 0.078
Размер потока : 1,07 Гбайт
Библиотека кодирования : x264 core 148 r2762 90a61ec
Настройки программы : cabac=1 / ref=9 / deblock=1:-2:-1 / analyse=0x3:0x133 / me=umh / subme=11 / psy=1 / psy_rd=1.00:0.00 / mixed_ref=1 / me_range=32 / chroma_me=1 / trellis=2 / 8x8dct=1 / cqm=0 / deadzone=21,11 / fast_pskip=0 / chroma_qp_offset=-2 / threads=6 / lookahead_threads=1 / sliced_threads=0 / nr=0 / decimate=1 / interlaced=0 / bluray_compat=0 / constrained_intra=0 / bframes=9 / b_pyramid=2 / b_adapt=2 / b_bias=0 / direct=3 / weightb=1 / open_gop=0 / weightp=2 / keyint=250 / keyint_min=23 / scenecut=40 / intra_refresh=0 / rc_lookahead=60 / rc=crf / mbtree=0 / crf=18.0 / qcomp=0.60 / qpmin=0 / qpmax=69 / qpstep=4 / vbv_maxrate=62500 / vbv_bufsize=78125 / crf_max=0.0 / nal_hrd=none / filler=0 / ip_ratio=1.40 / pb_ratio=1.30 / aq=1:1.00
Default : Да
Forced : Да
Аудио
Идентификатор : 2
Формат : AC-3
Формат/Информация : Audio Coding 3
Расширение режима : CM (complete main)
Параметр Endianness формата : Big
Идентификатор кодека : A_AC3
Продолжительность : 1 ч. 29 м.
Вид битрейта : Постоянный
Битрейт : 384 Кбит/сек
Каналы : 6 каналов
Расположение каналов : Front: L C R, Side: L R, LFE
Частота : 48,0 КГц
Битовая глубина : 16 бит
Метод сжатия : С потерями
Размер потока : 245 Мбайт
Язык : Russian
Default : Да
Forced : Нет
Текст #1
Идентификатор : 3
Формат : UTF-8
Идентификатор кодека : S_TEXT/UTF8
Идентификатор кодека/Информация : UTF-8 Plain Text
Язык : Russian
Default : Да
Forced : Нет
Текст #2
Идентификатор : 4
Формат : UTF-8
Идентификатор кодека : S_TEXT/UTF8
Идентификатор кодека/Информация : UTF-8 Plain Text
Язык : Russian
Default : Нет
Forced : Нет
Текст #3
Идентификатор : 5
Формат : UTF-8
Идентификатор кодека : S_TEXT/UTF8
Идентификатор кодека/Информация : UTF-8 Plain Text
Язык : English
Default : Нет
Forced : Нет
Меню
00:00:00.000 : en:1
00:08:47.693 : en:2
00:16:49.466 : en:3
00:22:25.052 : en:4
00:30:26.115 : en:5
00:35:32.213 : en:6
00:43:42.244 : en:7
00:51:25.707 : en:8
00:58:37.263 : en:9
01:05:23.628 : en:10
01:11:28.075 : en:11
01:15:16.178 : en:12

Семпл



   Похожие торренты   Торрент   Размер 
В этой теме нет новых непрочитанных сообщений. Футурама: В дикую зеленую даль / Futurama: Into the Wild Green Yonder (2009) BDRip от HQCLUB

78 | 12

1.45 ГБ

В этой теме нет новых непрочитанных сообщений. Футурама / Futurama [S05] (2007-2009) WEB-DLRip, HDRip от GeneralFilm | КПК

166 | 24

1.43 ГБ

В этой теме нет новых непрочитанных сообщений. Футурама / Futurama [s06-07] (2010-2013) BDRip | P2

15 | 16

11.74 ГБ

В этой теме нет новых непрочитанных сообщений. Футурама: Игра Бендера / Futurama: Bender's Game (2008) BDRip от HQCLUB

69 | 9

1.45 ГБ

В этой теме нет новых непрочитанных сообщений. Жареные зеленые помидоры / Fried Green Tomatoes (1991) BDRip от HQCLUB

218 | 11

2.18 ГБ

В этой теме нет новых непрочитанных сообщений. Жареные зелёные помидоры / Fried Green Tomatoes (1991) BDRip-AVC by msltel

91 | 10

3.25 ГБ

В этой теме нет новых непрочитанных сообщений. Жареные зелёные помидоры / Fried Green Tomatoes (1991) BDRip 720p by msltel

87 | 8

4.91 ГБ




Вы не можете начинать темы
Вы не можете отвечать на сообщения
Вы не можете редактировать свои сообщения
Вы не можете удалять свои сообщения
Вы не можете добавлять вложения

Перейти:  
 Вход
ppkBB3cker v.2 © 2008-2014 @ PPK
[ Time : 0.041s | 19 Queries | GZIP : Off ]

cron