img image001 image001 image001 image001 image001 image001 image001 image001 image001 image001 image001 image001 image001 image001 image001

Planets Sun Sun Sun
Статистика раздачи
Автор: Nickolas3434 | Размер: 986.97 МБ | Добавлен: 11 июн 2017
Раздают: 36    Качают: 0
Скачать торрент
Скачать торрент
Описание торрента

СообщениеДобавлено: 11 июн 2017 

Информация о фильме
Название: Малыши и Летающие звери
Год выхода: 2014-2015
Страна: Россия, Студия анимации «Да»
Жанр: Мультсериал, детский, семейный, приключения, музыкальный
Продолжительность: 52 x ~ 00:01:45
Язык: Русский
Режиссер: Михаил Сафронов, Илья Максимов, Галина Лютикова
О фильме:Оля и Коля — двойняшки. Эти милые главные герои, с которыми зрителей знакомит мультсериал Малыши и Летающие звери, ежеминутно познают мир и удивительных жителей волшебной Летающей страны. Детишкам по пять лет, а это именно тот возраст, когда любопытство ребенка безгранично. У наших героев есть масса вопросов, а умные звери всегда готовы прийти малышам на помощь и дать исчерпывающие ответы на любые вопросы.
01. Квадрат и круг
02. Зимняя прогулка
03. Новый год
04. Пальчики
05. Здравствуй
06. Зеркало
07. Засыпай
08. Мячик
09. Гадалка
10. Нос
11. День и ночь
12. Скоро
13. Чудо
14. Приглашение
15. Большое и маленькое
16. Время Ша
17. Алло, это море_
18. Тишина
19. Загадки
20. Вода
21. Облака
22. Горячо - холодно
23. Убираем
24. Эхо
25. Злюсь
26. Сколько рук
27. Сердце
28. Прощай
29. Непослушная нога
30. Очень грязное слово
31. Полная банка звёзд
32. Если бы
33. Одеваемся
34. Чем пахнет время
35. Яйцо
36. Спасители
37. Куда улетают шарики
38. Просто так
39. Сэр Тихий
40. Быстрый час
41. Грабитель
42. Я нашелся
43. Воображаемый друг
44. Непослушный слон
45. Бабушка спит
46. Птичка
47. Прятки
48. Красный
49. Конечно
50. Кузина
51. Два ничего
52. В коробке

Доп. информация:



Файл
Формат: MP4
Качество: WEB-DLRip 720p
Видео: MPEG4-AVC, 1280x720 (16:9), 25 fps, ~1 579 kbps avg, 0.069bit/pixel
Звук: 44,1 kHz, AАC-LC, 2.0, ~192 kbpsp
12. Скоро. HD-merci-.mp4
Format : MPEG-4
Format profile : Base Media
Codec ID : isom (isom/avc1/iso6)
File size : 22.2 MiB
Duration : 1 min 45 s
Overall bit rate mode : Variable
Overall bit rate : 1 773 kb/s
Encoded date : UTC 2017-06-11 12:42:48
Tagged date : UTC 2017-06-11 12:42:48
Writing application : My MP4Box GUI 0.6.0.6
Video
ID : 1
Format : AVC
Format/Info : Advanced Video Codec
Format profile : Main@L3.1
Format settings, CABAC : Yes
Format settings, ReFrames : 3 frames
Codec ID : avc1
Codec ID/Info : Advanced Video Coding
Duration : 1 min 44 s
Bit rate : 1 579 kb/s
Maximum bit rate : 3 874 kb/s
Width : 1 280 pixels
Height : 720 pixels
Display aspect ratio : 16:9
Frame rate mode : Constant
Frame rate : 25.000 FPS
Color space : YUV
Chroma subsampling : 4:2:0
Bit depth : 8 bits
Scan type : Progressive
Bits/(Pixel*Frame) : 0.069
Stream size : 19.8 MiB (89%)
Title : 12.h264
Encoded date : UTC 2017-06-11 12:42:48
Tagged date : UTC 2017-06-11 12:42:49
Audio
ID : 2
Format : AAC
Format/Info : Advanced Audio Codec
Format profile : LC
Codec ID : 40
Duration : 1 min 45 s
Bit rate mode : Variable
Bit rate : 192 kb/s
Maximum bit rate : 203 kb/s
Channel(s) : 2 channels
Channel positions : Front: L R
Sampling rate : 44.1 kHz
Frame rate : 43.066 FPS (1024 spf)
Compression mode : Lossy
Stream size : 2.40 MiB (11%)
Title : 12.m4a
Encoded date : UTC 2017-06-11 12:42:49
Tagged date : UTC 2017-06-11 12:42:49


Релиз от:
Автор релиза: /



   Похожие торренты   Торрент   Размер 
В этой теме нет новых непрочитанных сообщений. Малыши и Летающие звери [01-30 из 30] (2014-2015) WEB-DLRip от Generalfilm

245 | 10

742.7 МБ

В этой теме нет новых непрочитанных сообщений. Летающие звери [01х01-42] (2012-2015) WEB-DLRip 720p от ExKinoRay | D

11 | 2

3.91 ГБ

В этой теме нет новых непрочитанных сообщений. Летающие звери [S01] (2012) DVDRip от New-Team | лицензия

31 | 4

919.57 МБ

В этой теме нет новых непрочитанных сообщений. Летающие звери [S01] (2012) DVD5 R5 от New-Team | лицензия

15 | 2

2.85 ГБ

В этой теме нет новых непрочитанных сообщений. Летающие звери [S01x01-09 из 09] (2012) DVDRip-AVC от New-Team | лицензия

60 | 2

883.38 МБ

В этой теме нет новых непрочитанных сообщений. Безродные звери / Beasts of No Nation (2015) WEBRip 720p | L2

527 | 41

4.71 ГБ

В этой теме нет новых непрочитанных сообщений. Безродные звери / Beasts of No Nation (2015) WEBRip 720p | L1

946 | 81

3.43 ГБ




Вы не можете начинать темы
Вы не можете отвечать на сообщения
Вы не можете редактировать свои сообщения
Вы не можете удалять свои сообщения
Вы не можете добавлять вложения

Перейти:  
Для Мосгорсуда, Роскомнадзора и рекламодателей: mosgorsud-torrent[собачка]yandex.ru
 Вход
ppkBB3cker v.2 © 2008-2014 @ PPK
[ Time : 0.092s | 16 Queries | GZIP : Off ]

Торрент трекер RUTOR.IN, Не можете зайти на rutor.org? Какой новый адрес рутор? Какое зеркало рутор? Не работает rutor.org и зеркала? Тогда наш торрент специально для вас. Rutor.in неофициальное зеркало rutor. В случае если у Вас заблокирован rutor или вдруг Вы не можете на него зайти, то Вы без труда сможете скачать бесплатно и без рекламы последние новинки кино, игр, сериалов и прочего у нас, на Rutor.in. Не нужно использовать прокси, чтобы зайти на рутор, достаточно воспользоваться нашим ресурсом. Все новые фильмы, игры, сериалы, книги и музыка за 2013 и 2014 годы через торрент бесплатно. Скачивайте фильмы в хорошем качестве, игры для пк, xbox, playstation без регистрации. У нас вы найдете новые Зарубежные сериалы и Русские сериалы 2013, 2014, 2015 годов. Оставайтесь с нами, качайте любимые фильмы, игры, сериалы, книги и музыку.
cron