img image001 image001 image001 image001 image001 image001 image001 image001 image001 image001 image001 image001 image001 image001 image001 image001

Planets Sun Sun Sun
Статистика раздачи
Автор: Nickolas3434 | Размер: 745.96 МБ | Добавлен: 24 июн 2017
Раздают: 151    Качают: 6
Скачать торрент
Скачать торрент
Описание торрента

СообщениеДобавлено: 24 июн 2017 

Информация о фильме
Название: Обитель зла: Вендетта
Оригинальное название: Resident Evil: Vendetta
Год выпуска: 2017
Страна: Япония
Жанр: мультфильм, ужасы, фантастика, боевик, детектив, приключения

Перевод: Дубляж - [iTunes]
Продолжительность: 01:37:13

Режиссер: Таканори Цудзимото
В ролях: Кевин Дорман (Chris Redfield, озвучка), Мэттью Мерсер (Leon S. Kennedy, озвучка), Эрин Кехилл (Rebecca Chambers, озвучка), Кари Уолгрен (Nadia, озвучка), Ариф С. Кинчен (D.C.), Арни Пантойя (Damian, озвучка), Джон ДеМита (Glenn Arias, озвучка), Кристина Валенсуела (Maria Gomez, озвучка), Фред Татаскьор (Diego Gomez, озвучка), Александр Полински (Patricio, озвучка), Орион Акаба (Soldier, озвучка), Дэрин Де Пол (Zombie, озвучка)


Описание:
Сотрудник организации по борьбе с биотерроризмом B.S.A.A. Крис Редфилд проникает в таинственный особняк, который, согласно информации, является базой контрабандистов оружием. В ходе расследования Крис сталкивается с Гленом Ариасом, преступником объявленным в международный розыск, и становится свидетелем странной картины, в результате которой упускает Ариаса.

Рейтинг:

MPAA: R - Лицам до 17 лет обязательно присутствие взрослого

Качество: WEB-DLRip
Формат: AVI
Видео: XviD, 688x384 (16:9), 938 kbps, 23,976 fps, 0,148 bpp
Аудио: MP3 / 2.0 / 48 kHz / 128 kbps /
Сэмпл


Релиз от:


General
Complete name : E:Resident.Evil.Vendetta.2017.WEB-DLRip.745.R.G.Resident.avi
Format : AVI
Format/Info : Audio Video Interleave
File size : 746 MiB
Duration : 1 h 37 min
Overall bit rate : 1 073 kb/s
Writing application : VirtualDubModRus 1.5.10.2 (build 2542/release)
Writing library : VirtualDubMod build 2542/release
Video
ID : 0
Format : MPEG-4 Visual
Format profile : Advanced Simple@L5
Format settings, BVOP : 2
Format settings, QPel : No
Format settings, GMC : No warppoints
Format settings, Matrix : Custom
Codec ID : XVID
Codec ID/Hint : XviD
Duration : 1 h 37 min
Bit rate : 939 kb/s
Width : 688 pixels
Height : 384 pixels
Display aspect ratio : 16:9
Frame rate : 23.976 (23976/1000) FPS
Color space : YUV
Chroma subsampling : 4:2:0
Bit depth : 8 bits
Scan type : Progressive
Compression mode : Lossy
Bits/(Pixel*Frame) : 0.148
Stream size : 653 MiB (88%)
Writing library : XviD 73
Audio
ID : 1
Format : MPEG Audio
Format version : Version 1
Format profile : Layer 3
Codec ID : 55
Codec ID/Hint : MP3
Duration : 1 h 37 min
Bit rate mode : Constant
Bit rate : 128 kb/s
Channel(s) : 2 channels
Sampling rate : 48.0 kHz
Compression mode : Lossy
Stream size : 89.0 MiB (12%)
Alignment : Aligned on interleaves
Interleave, duration : 167 ms (4.00 video frames)
Interleave, preload duration : 216 ms
Writing library : LAME3.99r
Encoding settings : -m s -V 4 -q 3 -lowpass 17 -b 128



   Похожие торренты   Торрент   Размер 
В этой теме нет новых непрочитанных сообщений. Обитель зла: Вендетта / Resident Evil: Vendetta (2017) WEB-DLRip от R.G.Resident | iTunes

125 | 17

2.06 ГБ

В этой теме нет новых непрочитанных сообщений. Обитель зла: Вендетта / Resident Evil: Vendetta (2017) WEB-DLRip от R.G.Resident | iTunes

70 | 0

746.14 МБ

В этой теме нет новых непрочитанных сообщений. Обитель зла: Вендетта / Resident Evil: Vendetta (2017) WEB-DLRip от R.G.Resident | iTunes

28 | 0

2.05 ГБ

В этой теме нет новых непрочитанных сообщений. Обитель зла: Вендетта / Resident Evil: Vendetta (2017) WEB-DLRip | iTunes

1593 | 15

1.37 ГБ

В этой теме нет новых непрочитанных сообщений. Обитель зла: Вендетта / Resident Evil: Vendetta (2017) WEB-DLRip-AVC от ExKinoRay | iTunes

207 | 4

1.83 ГБ

В этой теме нет новых непрочитанных сообщений. Обитель зла: Вендетта / Resident Evil: Vendetta (2017) HDRip-AVC от ImperiaFilm | iTunes

30 | 3

739.26 МБ

В этой теме нет новых непрочитанных сообщений. Обитель зла: Вендетта / Resident Evil: Vendetta (2017) BDRip-AVC от HELLYWOOD | iTunes

97 | 2

2.13 ГБ




Вы не можете начинать темы
Вы не можете отвечать на сообщения
Вы не можете редактировать свои сообщения
Вы не можете удалять свои сообщения
Вы не можете добавлять вложения

Перейти:  
 Вход
ppkBB3cker v.2 © 2008-2014 @ PPK
[ Time : 0.031s | 18 Queries | GZIP : Off ]

cron