img image001 image001 image001 image001 image001 image001 image001 image001 image001 image001 image001 image001 image001 image001 image001

Planets Sun Sun Sun
Статистика раздачи
Автор: Nickolas3434 | Размер: 2.05 ГБ | Добавлен: 05 июл 2017
Раздают: 28    Качают: 0
Скачать торрент
Скачать торрент
Описание торрента

СообщениеДобавлено: 05 июл 2017 

Информация о фильме
Название: Обитель зла: Вендетта
Оригинальное название: Resident Evil: Vendetta
Год выпуска: 2017
Страна: Япония
Жанр: мультфильм, ужасы, фантастика, боевик, детектив, приключения

Перевод: Дубляж - [iTunes]
Субтитры: Русские (полные, внешние)
Продолжительность: 01:37:13

Режиссер: Таканори Цудзимото
В ролях: Кевин Дорман (Chris Redfield, озвучка), Мэттью Мерсер (Leon S. Kennedy, озвучка), Эрин Кехилл (Rebecca Chambers, озвучка), Кари Уолгрен (Nadia, озвучка), Ариф С. Кинчен (D.C.), Арни Пантойя (Damian, озвучка), Джон ДеМита (Glenn Arias, озвучка), Кристина Валенсуела (Maria Gomez, озвучка), Фред Татаскьор (Diego Gomez, озвучка), Александр Полински (Patricio, озвучка), Орион Акаба (Soldier, озвучка), Дэрин Де Пол (Zombie, озвучка)


Описание:
Сотрудник организации по борьбе с биотерроризмом B.S.A.A. Крис Редфилд проникает в таинственный особняк, который, согласно информации, является базой контрабандистов оружием. В ходе расследования Крис сталкивается с Гленом Ариасом, преступником объявленным в международный розыск, и становится свидетелем странной картины, в результате которой упускает Ариаса.

Рейтинг:

MPAA: R - Лицам до 17 лет обязательно присутствие взрослого

Качество: WEB-DLRip
Формат: AVI
Видео: XviD, 720x400 (16:9), 2240 kbps, 23,976 fps, 0,324 bpp
Аудио №1: русский / AC3 / 5.1 / 48 kHz / 384 kbps /
Аудио №2: английский / AC3 / 5.1 / 48 kHz / 384 kbps /
Сэмпл


Релиз от:


General
Complete name : E:Resident.Evil.Vendetta.2017.WEB-DLRip.R.G.ResidentResident.Evil.Vendetta.2017.WEB-DLRip.R.G.Resident.avi
Format : AVI
Format/Info : Audio Video Interleave
Format profile : OpenDML
File size : 2.06 GiB
Duration : 1 h 37 min
Overall bit rate : 3 026 kb/s
Writing application : VirtualDubModRus 1.5.10.2 (build 2542/release)
Writing library : VirtualDubMod build 2542/release
Video
ID : 0
Format : MPEG-4 Visual
Format profile : Advanced Simple@L5
Format settings, BVOP : 2
Format settings, QPel : No
Format settings, GMC : No warppoints
Format settings, Matrix : Custom
Codec ID : XVID
Codec ID/Hint : XviD
Duration : 1 h 37 min
Bit rate : 2 240 kb/s
Width : 720 pixels
Height : 400 pixels
Display aspect ratio : 16:9
Frame rate : 23.976 (23976/1000) FPS
Color space : YUV
Chroma subsampling : 4:2:0
Bit depth : 8 bits
Scan type : Progressive
Compression mode : Lossy
Bits/(Pixel*Frame) : 0.324
Stream size : 1.52 GiB (74%)
Writing library : XviD 73
Audio #1
ID : 1
Format : AC-3
Format/Info : Audio Coding 3
Mode extension : CM (complete main)
Format settings, Endianness : Big
Codec ID : 2000
Duration : 1 h 37 min
Bit rate mode : Constant
Bit rate : 384 kb/s
Channel(s) : 6 channels
Channel positions : Front: L C R, Side: L R, LFE
Sampling rate : 48.0 kHz
Frame rate : 31.250 FPS (1536 spf)
Compression mode : Lossy
Stream size : 267 MiB (13%)
Alignment : Split accross interleaves
Interleave, duration : 42 ms (1.00 video frame)
Interleave, preload duration : 500 ms
Audio #2
ID : 2
Format : AC-3
Format/Info : Audio Coding 3
Mode extension : CM (complete main)
Format settings, Endianness : Big
Codec ID : 2000
Duration : 1 h 37 min
Bit rate mode : Constant
Bit rate : 384 kb/s
Channel(s) : 6 channels
Channel positions : Front: L C R, Side: L R, LFE
Sampling rate : 48.0 kHz
Frame rate : 31.250 FPS (1536 spf)
Compression mode : Lossy
Stream size : 267 MiB (13%)
Alignment : Split accross interleaves
Interleave, duration : 42 ms (1.00 video frame)
Interleave, preload duration : 500 ms



   Похожие торренты   Торрент   Размер 
В этой теме нет новых непрочитанных сообщений. Обитель зла: Вендетта / Resident Evil: Vendetta (2017) WEB-DLRip от R.G.Resident | iTunes

72 | 0

746.14 МБ

В этой теме нет новых непрочитанных сообщений. Обитель зла: Вендетта / Resident Evil: Vendetta (2017) WEB-DLRip от R.G.Resident | iTunes

125 | 17

2.06 ГБ

В этой теме нет новых непрочитанных сообщений. Обитель зла: Вендетта / Resident Evil: Vendetta (2017) WEB-DLRip от R.G.Resident | iTunes

151 | 6

745.96 МБ

В этой теме нет новых непрочитанных сообщений. Обитель зла: Вендетта / Resident Evil: Vendetta (2017) WEB-DLRip | iTunes

1593 | 15

1.37 ГБ

В этой теме нет новых непрочитанных сообщений. Обитель зла: Вендетта / Resident Evil: Vendetta (2017) WEB-DLRip-AVC от ExKinoRay | iTunes

207 | 4

1.83 ГБ

В этой теме нет новых непрочитанных сообщений. Обитель зла: Вендетта / Resident Evil: Vendetta (2017) HDRip-AVC от ImperiaFilm | iTunes

30 | 3

739.26 МБ

В этой теме нет новых непрочитанных сообщений. Обитель зла: Вендетта / Resident Evil: Vendetta (2017) WEB-DL 720p от ExKinoRay | iTunes

524 | 6

2.71 ГБ




Вы не можете начинать темы
Вы не можете отвечать на сообщения
Вы не можете редактировать свои сообщения
Вы не можете удалять свои сообщения
Вы не можете добавлять вложения

Перейти:  
Для Мосгорсуда, Роскомнадзора и рекламодателей: mosgorsud-torrent[собачка]yandex.ru
 Вход
ppkBB3cker v.2 © 2008-2014 @ PPK
[ Time : 0.040s | 20 Queries | GZIP : Off ]

cron