img image001 image001 image001 image001 image001 image001 image001 image001 image001 image001 image001 image001 image001 image001 image001 image001

Planets Sun Sun Sun
Статистика раздачи
Автор: Nickolas3434 | Размер: 59.51 ГБ | Добавлен: 13 июл 2017
Раздают: 120    Качают: 72
Скачать торрент
Скачать торрент
Описание торрента

СообщениеДобавлено: 13 июл 2017 

Информация о фильме
Название: Чип и Дейл спешат на помощь
Оригинальное название: Chip 'n' Dale Rescue Rangers
Год выхода: 1989-1990
Жанр: мультфильм, комедия, детектив, приключения, семейный
Режиссер: Джон Кимболл, Боб Дзамбони, Алан Заслов
В ролях: Кори Бёртон, Питер Каллен, Джим Каммингс, Тресс МакНилл, Роб Полсен, Дэнни Гэнс
О фильме:
Чип и Дейл — самые большие шалуны, которых когда-либо создавала студия Дисней. Эти милые и очаровательные бурундучки вечно попадают в неприятности.
-- 1 Сезон -- (1989)
(01) 1-01. Кошки не в счет / Catteries Not Included
(02) 1-02. Подводные пираты / Piratsy Under The Seas
(03) 1-03. Дейл-инопланетянин / Dale Beside Himself
(04) 1-04. Удивительная собака Флэш / Flash The Wonder Dog
(05) 1-05. На старт! / Out to Launch
(06) 1-06. Большое приключение киви / Kiwi's Big Adventure
(07) 1-07. Как мы нянчились с бельчатами / Adventures in Squirrelsitting
(08) 1-08. Завещание сэра Баскервилля / Pound Of The Baskervilles
(09) 1-09. Пчелы - дело рискованное / Risky Beesiness
(10) 1-10. Приключения коралловой клуши / Three Men And A Booby
(11) 1-11. Охотники за коврами / The Carpetsnaggers
(12) 1-12. Держись, малыш! / Bearing Up Baby
(13) 1-13. Родительское благоразумие - в сторону / Parental Discretion Retired
-- 2 Сезон -- (1989-1990)
(14) 2-01. Похищенный рубин / To The Rescue (part 1)
(15) 2-02. Похищенный рубин. Как мы встретились с Рокфором / To The Rescue (part 2)
(16) 2-03. Похищенный рубин. История знакомства с Гайкой / To The Rescue (part 3)
(17) 2-04. Похищенный рубин. Итак, работаем вместе! / To The Rescue (part 4)
(18) 2-05. Похищенный рубин. Конец истории с рубином / To The Rescue (part 5)
(19) 2-06. Волшебная лампа / A Lad In A Lamp
(20) 2-07. Не везет, так не везет / The Luck Stops Here
(21) 2-08. Битва в воздухе / Battle Of The Bulge
(22) 2-09. Призрак удачи / Ghost Of A Chance
(23) 2-10. А слон и не подозревал / An Elephant Never Suspects
(24) 2-11. Попробуй, обмани / Fake Me To Your Leader
(25) 2-12. Последний поезд в Долларвиль / Last Train To Cashville
(26) 2-13. Гроза подмостков / A Case Of Stage Blight
(27) 2-14. Культ Ку-ку-колы / The Case Of The Cola Cult
(28) 2-15. Похождения мумии / Throw Mummy From The Train
(29) 2-16. Забавный оборотень / A Wolf In Cheap Clothing
(30) 2-17. Робокот / Robocat
(31) 2-18. Знаете ли вы теорию Павлова? / Does Pavlov Ring A Bell?
(32) 2-19. Паника в музее / Prehysterical Pet
(33) 2-20. Подводный кошмар / A Creep In The Deep
(34) 2-21. Изобретение Норми / Normie's Science Project
(35) 2-22. Не искушай судьбу / Seer No Evil
(36) 2-23. Жертвы кораблекрушения / Chipwrecked Shipmunks
(37) 2-24. Когда все мыши замерли от страха / When Mice Were Men
(38) 2-25. Шоколадные чипсы / Chocolate Chips
(39) 2-26. Последний эльф / The Last Leprecaun
(40) 2-27. В любую погоду / Weather Or Not
(41) 2-28. Великий Чип / One-Upsman-Chip
(42) 2-29. Ракушечный бум / Shellshocked
(43) 2-30. Сыру - мир! / Mind Your Cheese And Q's
(44) 2-31. Ночная песня соловья / Song of the Night'n Dale
(45) 2-32. Бурундуки на секретной службе / Double'0 Chipmunk
(46) 2-33. Гайка на Гавайях / Gadget Goes Hawaiian
(47) 2-34. Безумный Дейл / It's A Bird, It's Insane, It's Dale!
(48) 2-35. Обманщики по заказу / Short Order Crooks
(49) 2-36. Сила любви / Love is a Many Splintered Thing
(50) 2-37. Эффект масштаба / Out of Scale
(51) 2-38. Операция "Подгузник" / Dirty Rotten Diapers
(52) 2-39. Мой друг - летучая мышь / Good Times, Bat Times
(53) 2-40. Птицефабрика / Pie In The Sky
(54) 2-41. Бесстрашный воин / Le Purrfect Crime
(55) 2-42. Звёздам можно верить / When You Fish Upon A Star
(56) 2-43. Чернослив и день рождения / Rest Home Rangers
(57) 2-44. Не рой яму собаке / A Lean on the Property
(58) 2-45. Картофель под мышами / The Pied Piper Power Play
(59) 2-46. Гориллам не нужны бриллианты / Gorilla My Dreams
(60) 2-47. Плывет, плывет кораблик / The S.S. Drainpipe
-- 3 Сезон -- (1990)
(61) 3-01. Вжик, вернись домой / Zipper Come Home
(62) 3-02. Дутые спасатели / Puffed Rangers
(63) 3-03. Мухи - отдельно / A Fly in the Ointment
(64) 3-04. Туфли и айсберги / A Chorus Crime
(65) 3-05. Загнанных собак меняют? / They Shoot Dogs, Don't They?


Страна: США
Студия: Walt Disney Television Animation
Продолжительность: ~00:22:00 серия
Перевод: Дублированный
Файл
Кодек: AVC / AAC
Качество: WEBDL 1080p
Видео: AVC/H.264, 1440x1080, ~4850 kbps - 6800 kbps
Звук:
Аудио #1: AC3, 2 ch, 192 kbps, CBR - Русский
Аудио #2: AC3, 2 ch, 224 kbps, CBR - Английский
Субтитры: Английские
Реклама: трёхсекундная заставка в начале
General
Complete name : 1-01. Кошки не в счет.mkv
Format : Matroska
Format version : Version 4 / Version 2
File size : 875 MiB
Duration : 22 min 47 s
Overall bit rate mode : Variable
Overall bit rate : 5 368 kb/s
Movie name : S01E01 Кошки не в счет
Encoded date : UTC 2016-09-18 08:23:04
Writing application : mkvmerge v9.3.1 ('Mask Machine') 32bit
Writing library : libebml v1.3.4 + libmatroska v1.4.5
Cover : Yes
Attachments : cover.chip.n.dale.jpg
Video
ID : 1
Format : AVC
Format/Info : Advanced Video Codec
Format profile : High@L4
Format settings, CABAC : Yes
Format settings, ReFrames : 4 frames
Codec ID : V_MPEG4/ISO/AVC
Duration : 22 min 46 s
Bit rate mode : Variable
Bit rate : 4 951 kb/s
Maximum bit rate : 15.0 Mb/s
Width : 1 440 pixels
Height : 1 080 pixels
Display aspect ratio : 4:3
Frame rate mode : Constant
Frame rate : 23.976 (24000/1001) FPS
Color space : YUV
Chroma subsampling : 4:2:0
Bit depth : 8 bits
Scan type : Progressive
Bits/(Pixel*Frame) : 0.133
Stream size : 807 MiB (92%)
Title : Chip 'n' Dale's Rescue Rangers S01E01
Default : Yes
Forced : No
Color range : Limited
Color primaries : BT.709
Transfer characteristics : BT.709
Matrix coefficients : BT.709
Audio #1
ID : 2
Format : AC-3
Format/Info : Audio Coding 3
Format settings, Endianness : Big
Codec ID : A_AC3
Duration : 22 min 47 s
Bit rate mode : Constant
Bit rate : 192 kb/s
Channel(s) : 2 channels
Channel positions : Front: L R
Sampling rate : 48.0 kHz
Frame rate : 31.250 FPS (1536 spf)
Bit depth : 16 bits
Compression mode : Lossy
Stream size : 31.3 MiB (4%)
Title : DUB Russian
Language : Russian
Service kind : Complete Main
Default : Yes
Forced : No
Audio #2
ID : 3
Format : E-AC-3
Format/Info : Enhanced Audio Coding 3
Format settings, Endianness : Big
Codec ID : A_EAC3
Duration : 22 min 46 s
Bit rate mode : Constant
Bit rate : 224 kb/s
Channel(s) : 2 channels
Channel positions : Front: L R
Sampling rate : 48.0 kHz
Frame rate : 187.500 FPS (256 spf)
Compression mode : Lossy
Stream size : 36.5 MiB (4%)
Title : English
Language : English
Service kind : Complete Main
Default : No
Forced : No
Text
ID : 4
Format : UTF-8
Codec ID : S_TEXT/UTF8
Codec ID/Info : UTF-8 Plain Text
Duration : 22 min 8 s
Bit rate : 47 b/s
Count of elements : 320
Stream size : 7.72 KiB (0%)
Title : English
Language : English
Default : No
Forced : No



   Похожие торренты   Торрент   Размер 
В этой теме нет новых непрочитанных сообщений. Чип и Дейл спешат на помощь / Chip 'n' Dale Rescue Rangers [S01-03] (1989-1990) WEBRip-AVC | D

257 | 72

16.23 ГБ

В этой теме нет новых непрочитанных сообщений. Чип и Дейл спешат на помощь [1,2,3-й сезоны - 65 серий] (1989-1992) SATRip от Sanjar & NeoJet | КПК

676 | 136

4.04 ГБ

В этой теме нет новых непрочитанных сообщений. Дональд Дак, Чип и Дейл: Работа за орехи / Donald Duck vs Chip & Dale: Working for Peanuts (1953) BDRip

142 | 10

109.89 МБ

В этой теме нет новых непрочитанных сообщений. Уральские Пельмени. Пель и мень спешат на помощь [01-02 из 02] (2014) SATRip

2976 | 1180

1.05 ГБ

В этой теме нет новых непрочитанных сообщений. Animal Planet: Дик и Дом спешат на помощь / Dick 'N' Dom Go Wild [01-02] (2011) SATRip от HitWay | P1

0 | 2

523.49 МБ

В этой теме нет новых непрочитанных сообщений. Animal Planet: Дик и Дом спешат на помощь / Dick 'N' Dom Go Wild [01-14 из 20] (2011) SATRip от HitWay | P1

0 | 2

3.57 ГБ

В этой теме нет новых непрочитанных сообщений. Animal Planet: Дик и Дом спешат на помощь / Dick 'N' Dom Go Wild [01-04] (2011) SATRip от HitWay | P1

3 | 2

1.03 ГБ




Вы не можете начинать темы
Вы не можете отвечать на сообщения
Вы не можете редактировать свои сообщения
Вы не можете удалять свои сообщения
Вы не можете добавлять вложения

Перейти:  
 Вход
ppkBB3cker v.2 © 2008-2014 @ PPK
[ Time : 0.064s | 15 Queries | GZIP : Off ]

cron