img image001 image001 image001 image001 image001 image001 image001 image001 image001 image001 image001 image001 image001 image001 image001

Planets Sun Sun Sun
Статистика раздачи
Автор: Nickolas3434 | Размер: 73.69 ГБ | Добавлен: 03 авг 2017
Раздают: 2    Качают: 4
Скачать торрент
Скачать торрент
Описание торрента

СообщениеДобавлено: 03 авг 2017 

Великий Человек-Паук / Совершенный Человек-Паук (1-4 сезоны, 1-104 серии из 104) / Ultimate Spider-Man

Перевод: Профессиональный (полное дублирование)
Субтитры: отсутствуют
Формат: WEB-DL, MKV, H.264, AC3
Страна: США
Режиссер: Джефф Аллен, Филип Пиньотти, Алекс Сото
Жанр: мультфильм, фантастика, боевик, приключения
Продолжительность: 104 х ~00:22:00
Год выпуска: 2012-2017

В ролях: Дрейк Белл,Оги Бэнкс,Чи МакБрайд,Логан Миллер,Грег Сайпс,Кейтлин Тейлор Лав,Мэтт Лантер,Дж.К. Симмонс,Том Кенни,Мисти Ли.

Описание: Мультсериал основан на одноимённой серии комиксов, повествующих о ещё молодом Человеке-пауке, которому Ник Фьюри предложил пройти тренировочный курс для улучшения собственных навыков. В ходе обучения Человек-паук обзаводится командой из Люка Кейджа, Железного кулака, Новы и Белой тигрицы. В ходе тренировок ему предоставляется собственный мотоцикл (Спайдерцикл). В одной из серий Человек-паук встретит Железного Человека, который сделает ему броню Железного Паука.



сезон-1
Видео: 1280x720p (16:9), 23,976 fps, MPEG4 AVC (x264), ~3841 Kbps avg, 0.174 bit/pixel
Аудио#1: Русский 48 kHz, AC3, 2 ch ~ 192 Kbps [Профессиональный (полное дублирование)]
Аудио#2: Английский 48 kHz, AC3, 6 ch ~ 384 Kbps [Оригинал]

сезон-2
Видео: 1280x720p (16:9), 23,976 fps, MPEG4 AVC (x264), ~3747 Kbps avg, 0.170 bit/pixel
Аудио#1: Русский 48 kHz, AC3, 2 ch ~ 192 Kbps [Профессиональный (полное дублирование)]
Аудио#2: Английский 48 kHz, AC3, 6 ch ~ 384 Kbps [Оригинал]

сезон-3
Видео: 1280x720p (16:9), 23,976 fps, MPEG4 AVC (x264), ~3881 Kbps avg, 0.176 bit/pixel
Аудио#1: Русский 48 kHz, AC3, 2 ch ~ 192 Kbps [Профессиональный (полное дублирование)]
Аудио#2: Английский 48 kHz, AC3, 6 ch ~ 384 Kbps [Оригинал]

сезон-4
Видео: 1280x720p (16:9), 23,976 fps, MPEG4 AVC (x264), ~4149 Kbps avg, 0.188 bit/pixel
Аудио#1: Русский 48 kHz, AC3, 2 ch ~ 192 Kbps [Любительский (многоголосый закадровый)]
Аудио#2: Английский 48 kHz, AC3, 6 ch ~ 384 Kbps [Оригинал]

Релиз от:

Релиз предоставлен сайтом my-tfile.org!!


Общее
Уникальный идентификатор : 185128131870163120177796787974352305227 (0x8B46619B060736F0AD600A20B6B67C4B)
Полное имя : F:\TREKER\ТЕМР\ultimate_spider_man_[my-tfile.org]\ultimate_spider_man_[my-tfile.org]_S01_E01.mkv
Формат : Matroska
Версия формата : Version 2
Размер файла : 714 Мбайт
Продолжительность : 22 м. 8 с.
Общий поток : 4507 Кбит/сек
Название фильма : ultimate_spider_man_[my-tfile.org]_S01
Дата кодирования : UTC 2017-08-02 05:52:24
Программа кодирования : mkvmerge v4.0.0 ('The Stars were mine') сборка от Jun 6 2010 16:18:42
Библиотека кодирования : libebml v1.0.0 + libmatroska v1.0.0
Обложка : Yes
Attachments : cover.jpg

Видео
Идентификатор : 1
Формат : AVC
Формат/Информация : Advanced Video Codec
Профиль формата :
Параметр CABAC формата : Нет
Параметр ReFrames формата : 2 кадра
Идентификатор кодека : V_MPEG4/ISO/AVC
Продолжительность : 22 м. 8 с.
Битрейт : 3841 Кбит/сек
Ширина : 1280 пикселей
Высота : 720 пикселей
Соотношение сторон : 16:9
Режим частоты кадров : Постоянный
Частота кадров : 23,976 кадра/сек
Цветовое пространство : YUV
Субдискретизация насыщенности : 4:2:0
Битовая глубина : 8 бит
Тип развёртки : Прогрессивная
Бит/(Пиксели*Кадры) : 0.174
Размер потока : 608 Мбайт (85%)
Заголовок : ultimate_spider_man_[my-tfile.org]_S01_E01
Язык : English
Default : Нет
Forced : Нет
Цветовой диапазон : Limited
Основные цвета : BT.709
Характеристики трансфера : BT.709
Коэффициенты матрицы : BT.709

Аудио #1
Идентификатор : 2
Формат : AC-3
Формат/Информация : Audio Coding 3
Расширение режима : CM (complete main)
Параметр Endianness формата : Big
Идентификатор кодека : A_AC3
Продолжительность : 22 м. 8 с.
Вид битрейта : Постоянный
Битрейт : 192 Кбит/сек
Каналы : 2 канала
Расположение каналов : Front: L R
Частота : 48,0 КГц
Частота кадров : 31,250 кадров/сек (1536 spf)
Битовая глубина : 16 бит
Метод сжатия : С потерями
Размер потока : 30,4 Мбайт (4%)
Заголовок : Профессиональный (полное дублирование)
Язык : Russian
Default : Да
Forced : Нет

Аудио #2
Идентификатор : 3
Формат : AC-3
Формат/Информация : Audio Coding 3
Расширение режима : CM (complete main)
Параметр Endianness формата : Big
Идентификатор кодека : A_AC3
Продолжительность : 22 м. 8 с.
Вид битрейта : Постоянный
Битрейт : 384 Кбит/сек
Каналы : 6 каналов
Расположение каналов : Front: L C R, Side: L R, LFE
Частота : 48,0 КГц
Частота кадров : 31,250 кадров/сек (1536 spf)
Битовая глубина : 16 бит
Метод сжатия : С потерями
Размер потока : 60,8 Мбайт (9%)
Заголовок : Оригинал
Язык : English
Default : Нет
Forced : Нет










   Похожие торренты   Торрент   Размер 
В этой теме нет новых непрочитанных сообщений. Великий Человек-Паук / Совершенный Человек-Паук (1-4 сезоны, 1-104 серии из 104) / Ultimate Spider-Man (Джефф Аллен...) [2012-2017, фантастика, боевик, приключения, DVDRip, WEB-DLRip] DUB, MVO / Marvel

26 | 26

37.72 ГБ

В этой теме нет новых непрочитанных сообщений. Великий Человек-Паук / Совершенный Человек-Паук (1-4 сезоны, 1-104 серии из 104) / Ultimate Spider-Man (Джефф Аллен...) [2012-2017, фантастика, боевик... DVDRip-AVC, WEB-DLRip-AVC] DUB, MVO / Marvel

19 | 13

37.66 ГБ

В этой теме нет новых непрочитанных сообщений. Великий Человек-паук / Совершенный Человек-паук / Ultimate Spider-Man [01x01-12 из 26] (2012) 2xDVD9 от New-Team | D | Лицензия

2 | 5

13.38 ГБ

В этой теме нет новых непрочитанных сообщений. Великий Человек-паук / Совершенный Человек-паук / Ultimate Spider-Man [01x01-12 из 26] (2012) DVDRip-AVC от New-Team | D | лицензия

72 | 41

9.19 ГБ

В этой теме нет новых непрочитанных сообщений. Великий Человек-паук / Совершенный Человек-паук / Ultimate Spider-Man [01x01-12 из 26] (2012) 2xDVD9 от New-Team | D | Лицензия

1 | 10

27.99 ГБ

В этой теме нет новых непрочитанных сообщений. Великий Человек-паук / Совершенный Человек-паук / Ultimate Spider-Man [01x01-12 из 26] (2012) DVDRip-AVC от New-Team | D | лицензия

25 | 15

4.24 ГБ

В этой теме нет новых непрочитанных сообщений. Великий Человек-паук / Совершенный Человек-паук / Ultimate Spider-Man [01x01-12 из 26] (2012) DVDRip от New-Team | D | лицензия

55 | 37

9.2 ГБ




Вы не можете начинать темы
Вы не можете отвечать на сообщения
Вы не можете редактировать свои сообщения
Вы не можете удалять свои сообщения
Вы не можете добавлять вложения

Перейти:  
Для Мосгорсуда, Роскомнадзора и рекламодателей: mosgorsud-torrent[собачка]yandex.ru
 Вход
ppkBB3cker v.2 © 2008-2014 @ PPK
[ Time : 0.032s | 18 Queries | GZIP : Off ]

cron