img image001 image001 image001 image001 image001 image001 image001 image001 image001 image001 image001 image001 image001 image001 image001

Planets Sun Sun Sun
Статистика раздачи
Автор: Nickolas3434 | Размер: 2.68 ГБ | Добавлен: 10 окт 2017
Раздают: 17    Качают: 3
Скачать торрент
Скачать торрент
Описание торрента

СообщениеДобавлено: 10 окт 2017 

Информация о фильме
Наименование: Капитан Подштанник: Первый эпический фильм
Оригинальное наименование: Captain Underpants: The First Epic Movie
Произведено: США
Категория: мультфильм, боевик, комедия, семейный
Режиссер постановщик: Дэвид Сорен
В главных ролях: Эд Хелмс, Кевин Харт, Ник Кролл, Томас Миддлдитч, Джордан Пил, Кристен Шаал, Ди Ди Решер, Брайан Посен, Дэвид Сорен, Мэл Родригез
О фильме:
Двое учеников начальной школы загипнотизировали директора школы так, что он стал супергероем, помогающим их одноклассникам.

Файл
Качество: BDRip 720p
Видео данные: MKV, 1280x688 (1.85:1), 23.976 fps, 4000 Кбит/с
Аудио данные: Русский (MP3, 2 ch, 320 Кбит/с)
Перевод: Любительский многоголосый (GreenРай Studio)
Продолжительность: 01:29:34
General
Unique ID : 216483027119178419964480263686699980188 (0xA2DD1D4BCFBFB51EBC99CF418AB5959C)
Complete name : D:МультикCaptain.Underpants.The.First.Epic.Movie.2017.P.BDRip.720p.mkv
Format : Matroska
Format version : Version 4 / Version 2
File size : 2.68 GiB
Duration : 1 h 29 min
Overall bit rate mode : Constant
Overall bit rate : 4 293 kb/s
Encoded date : UTC 2017-10-03 06:49:06
Writing application : mkvmerge v8.3.0 ('Over the Horizon') 64bit
Writing library : libebml v1.3.1 + libmatroska v1.4.2
Video
ID : 1
Format : AVC
Format/Info : Advanced Video Codec
Format profile : Main@L3.1
Format settings, CABAC : Yes
Format settings, ReFrames : 3 frames
Format settings, GOP : M=4, N=15
Codec ID : V_MPEG4/ISO/AVC
Duration : 1 h 29 min
Bit rate mode : Constant
Bit rate : 4 000 kb/s
Width : 1 280 pixels
Height : 688 pixels
Display aspect ratio : 1.85:1
Frame rate mode : Constant
Frame rate : 23.976 (23976/1000) FPS
Standard : NTSC
Color space : YUV
Chroma subsampling : 4:2:0
Bit depth : 8 bits
Scan type : Progressive
Bits/(Pixel*Frame) : 0.189
Stream size : 2.47 GiB (92%)
Language : English
Default : Yes
Forced : No
Color range : Limited
Audio
ID : 2
Format : MPEG Audio
Format version : Version 1
Format profile : Layer 3
Mode : Joint stereo
Codec ID : A_MPEG/L3
Codec ID/Hint : MP3
Duration : 1 h 29 min
Bit rate mode : Constant
Bit rate : 320 kb/s
Channel(s) : 2 channels
Sampling rate : 48.0 kHz
Frame rate : 41.667 FPS (1152 spf)
Compression mode : Lossy
Stream size : 204 MiB (7%)
Default : Yes
Forced : No

ВНИМАНИЕ! Присутствует реклама!

Релиз от:



   Похожие торренты   Торрент   Размер 
В этой теме нет новых непрочитанных сообщений. Капитан Подштанник: Первый эпический фильм / Captain Underpants: The First Epic Movie (2017) BDRip от Seven | Лицензия

26 | 4

2.19 ГБ

В этой теме нет новых непрочитанных сообщений. Капитан Подштанник: Первый эпический фильм / Captain Underpants: The First Epic Movie (2017) BDRip 720p от KinoGadget | iPad | Лицензия

20 | 3

1.52 ГБ

В этой теме нет новых непрочитанных сообщений. Капитан Подштанник: Первый эпический фильм / Captain Underpants: The First Epic Movie (2017) BDRip от ExKinoRay | Лицензия

100 | 6

1.46 ГБ

В этой теме нет новых непрочитанных сообщений. Капитан Подштанник: Первый эпический фильм / Captain Underpants: The First Epic Movie (2017) BDRip от MegaPeer | Лицензия

1823 | 39

1.46 ГБ

В этой теме нет новых непрочитанных сообщений. Капитан Подштанник: Первый эпический фильм / Captain Underpants: The First Epic Movie (2017) BDRip от HQCLUB | P | Лицензия

59 | 4

1.45 ГБ

В этой теме нет новых непрочитанных сообщений. Капитан Подштанник: Первый эпический фильм / Captain Underpants: The First Epic Movie (2017) HDRip | L

26 | 6

1.37 ГБ

В этой теме нет новых непрочитанных сообщений. Капитан Подштанник: Первый эпический фильм / Captain Underpants: The First Epic Movie (2017) HDRip от MegaPeer | Лицензия

76 | 4

751.14 МБ




Вы не можете начинать темы
Вы не можете отвечать на сообщения
Вы не можете редактировать свои сообщения
Вы не можете удалять свои сообщения
Вы не можете добавлять вложения

Перейти:  
Для Мосгорсуда, Роскомнадзора и рекламодателей: mosgorsud-torrent[собачка]yandex.ru
 Вход
ppkBB3cker v.2 © 2008-2014 @ PPK
[ Time : 0.039s | 20 Queries | GZIP : Off ]

cron