img image001 image001 image001 image001 image001 image001 image001 image001 image001 image001 image001 image001 image001 image001 image001

Planets Sun Sun Sun
Статистика раздачи
Автор: Nickolas3434 | Размер: 19.4 ГБ | Добавлен: 10 окт 2017
Раздают: 10    Качают: 4
Скачать торрент
Скачать торрент
Описание торрента

СообщениеДобавлено: 10 окт 2017 

Информация о фильме
Название: Смурфики: Затерянная деревня
Оригинальное название: Smurfs: The Lost Village
Год выпуска: 2017
Жанр: Мультфильм, фэнтези, комедия, приключения, семейный
Выпущено: США, Columbia Pictures, Sony Pictures Animation
Режиссер: Келли Эсбёри
В ролях: Ариэль Уинтер, Джо Манганьелло, Мишель Родригес, Джулия Робертс, Элли Кемпер, Мэнди Пэтинкин, Рэйн Уилсон, Деми Ловато, Джейк Джонсон, Джек МакБрайер
О фильме: Смурфетта и её лучшие друзья, Умник, Растяпа и Силач, отправляются на поиски таинственной затерянной деревни, стремясь опередить злобного волшебника Гаргамеля. В пути смурфиков ожидают невероятные опасности и головокружительные приключения, но игра стоит свеч, ведь в конечном итоге герои смогут разгадать самую большую загадку в истории своего существования!

Качество: Blu-Ray Remux (1080p)
Видео: MPEG-4 AVC, 25829 Кбит/с, 1920x1080, 23.976 кадр/с
Аудио: Русский, латышский, литовский, эстонский (AC3, 6 ch, 640 Кбит/с), украинский (AC3, 2 ch, 192 Кбит/с), английский (DTS-HD MA, 6 ch, 2353 Кбит/с)
Размер: 19.40 ГБ
Продолжительность: 01:29:46
Перевод: Дублированный
Субтитры: Русские, латышские, литовские, эстонские, украинские, английские
Озвучивание - (Лицензия)
За исходник, большое спасибо New-Team
Сохранены оригинальные чаптеры как на Blu-Ray.
Общее
Уникальный идентификатор : 245720526585313203714177550488939870816 (0xB8DC0D50891BE5C58CDEDDAA85BD3A60)
Полное имя : D:ЗагрузкиSmurfs.The.Lost.Village.2017.BDRemux.(1080p).OlLanDGroup.mkv
Формат : Matroska
Версия формата : Version 2
Размер файла : 19,4 Гбайт
Продолжительность : 1 ч. 29 м.
Режим общего битрейта : Переменный
Общий поток : 30,9 Мбит/сек
Название фильма : Смурфики: Затерянная деревня.2017.Cборка: ollan
Дата кодирования : UTC 2017-10-07 16:44:57
Программа кодирования : mkvmerge v5.6.0 ('Kenya Kane') built on May 27 2012 16:44:04
Библиотека кодирования : libebml v1.2.3 + libmatroska v1.3.0
Attachements : Cover - Smurfs.The.Lost.Village.png
Видео
Идентификатор : 1
Формат : AVC
Формат/Информация : Advanced Video Codec
Профиль формата : High@L4.1
Параметр CABAC формата : Да
Параметр ReFrames формата : 2 кадра
Параметр GOP формата : M=1, N=10
Идентификатор кодека : V_MPEG4/ISO/AVC
Продолжительность : 1 ч. 29 м.
Вид битрейта : Переменный
Ширина : 1920 пикселей
Высота : 1080 пикселей
Соотношение сторон : 16:9
Режим частоты кадров : Постоянный
Частота кадров : 23,976 (24000/1001) кадра/сек
Цветовое пространство : YUV
Субдискретизация насыщенности : 4:2:0
Битовая глубина : 8 бит
Тип развёртки : Прогрессивная
Язык : English
Default : Да
Forced : Нет
Аудио #1
Идентификатор : 2
Формат : AC-3
Формат/Информация : Audio Coding 3
Расширение режима : CM (complete main)
Параметр Endianness формата : Big
Идентификатор кодека : A_AC3
Продолжительность : 1 ч. 29 м.
Вид битрейта : Постоянный
Битрейт : 640 Кбит/сек
Каналы : 6 каналов
Расположение каналов : Front: L C R, Side: L R, LFE
Частота : 48,0 КГц
Частота кадров : 31,250 кадров/сек (1536 spf)
Метод сжатия : С потерями
Размер потока : 411 Мбайт (2%)
Заголовок : Дублированный (Лицензия)
Язык : Russian
Default : Да
Forced : Нет
Аудио #2
Идентификатор : 3
Формат : AC-3
Формат/Информация : Audio Coding 3
Расширение режима : CM (complete main)
Параметр Endianness формата : Big
Идентификатор кодека : A_AC3
Продолжительность : 1 ч. 29 м.
Вид битрейта : Постоянный
Битрейт : 640 Кбит/сек
Каналы : 6 каналов
Расположение каналов : Front: L C R, Side: L R, LFE
Частота : 48,0 КГц
Частота кадров : 31,250 кадров/сек (1536 spf)
Метод сжатия : С потерями
Задержка видео : 7 мс.
Размер потока : 411 Мбайт (2%)
Заголовок : Дублированный (Лицензия)
Язык : Latvian
Default : Нет
Forced : Нет
Аудио #3
Идентификатор : 4
Формат : AC-3
Формат/Информация : Audio Coding 3
Расширение режима : CM (complete main)
Параметр Endianness формата : Big
Идентификатор кодека : A_AC3
Продолжительность : 1 ч. 29 м.
Вид битрейта : Постоянный
Битрейт : 640 Кбит/сек
Каналы : 6 каналов
Расположение каналов : Front: L C R, Side: L R, LFE
Частота : 48,0 КГц
Частота кадров : 31,250 кадров/сек (1536 spf)
Метод сжатия : С потерями
Задержка видео : 7 мс.
Размер потока : 411 Мбайт (2%)
Заголовок : Дублированный (Лицензия)
Язык : Lithuanian
Default : Нет
Forced : Нет
Аудио #4
Идентификатор : 5
Формат : AC-3
Формат/Информация : Audio Coding 3
Расширение режима : CM (complete main)
Параметр Endianness формата : Big
Идентификатор кодека : A_AC3
Продолжительность : 1 ч. 29 м.
Вид битрейта : Постоянный
Битрейт : 640 Кбит/сек
Каналы : 6 каналов
Расположение каналов : Front: L C R, Side: L R, LFE
Частота : 48,0 КГц
Частота кадров : 31,250 кадров/сек (1536 spf)
Метод сжатия : С потерями
Задержка видео : 7 мс.
Размер потока : 411 Мбайт (2%)
Заголовок : Дублированный (Лицензия)
Язык : Estonian
Default : Нет
Forced : Нет
Аудио #5
Идентификатор : 6
Формат : AC-3
Формат/Информация : Audio Coding 3
Расширение режима : CM (complete main)
Параметр Endianness формата : Big
Идентификатор кодека : A_AC3
Продолжительность : 1 ч. 29 м.
Вид битрейта : Постоянный
Битрейт : 192 Кбит/сек
Каналы : 2 канала
Расположение каналов : Front: L R
Частота : 48,0 КГц
Частота кадров : 31,250 кадров/сек (1536 spf)
Метод сжатия : С потерями
Размер потока : 123 Мбайт (1%)
Заголовок : Дублированный (iTunes)
Язык : Ukrainian
Default : Нет
Forced : Нет
Аудио #6
Идентификатор : 7
Формат : DTS
Формат/Информация : Digital Theater Systems
Профиль формата : MA / Core
Режим : 16
Параметр Endianness формата : Big
Идентификатор кодека : A_DTS
Продолжительность : 1 ч. 29 м.
Вид битрейта : Переменный / Постоянный
Битрейт : Неизвестно / 1509 Кбит/сек
Каналы : 6 каналов
Расположение каналов : Front: L C R, Side: L R, LFE
Частота : 48,0 КГц
Частота кадров : 93,750 кадра/сек (512 spf)
Битовая глубина : 16 бит
Метод сжатия : Без потерь / Lossy
Язык : Lithuanian
Default : Нет
Forced : Нет
Текст #1
Идентификатор : 8
Формат : UTF-8
Идентификатор кодека : S_TEXT/UTF8
Идентификатор кодека/Информация : UTF-8 Plain Text
Заголовок : Forced
Язык : Russian
Default : Да
Forced : Нет
Текст #2
Идентификатор : 9
Формат : UTF-8
Идентификатор кодека : S_TEXT/UTF8
Идентификатор кодека/Информация : UTF-8 Plain Text
Заголовок : Full
Язык : Russian
Default : Нет
Forced : Нет
Текст #3
Идентификатор : 10
Формат : UTF-8
Идентификатор кодека : S_TEXT/UTF8
Идентификатор кодека/Информация : UTF-8 Plain Text
Заголовок : Full
Язык : Latvian
Default : Нет
Forced : Нет
Текст #4
Идентификатор : 11
Формат : UTF-8
Идентификатор кодека : S_TEXT/UTF8
Идентификатор кодека/Информация : UTF-8 Plain Text
Заголовок : Full
Язык : Lithuanian
Default : Нет
Forced : Нет
Текст #5
Идентификатор : 12
Формат : UTF-8
Идентификатор кодека : S_TEXT/UTF8
Идентификатор кодека/Информация : UTF-8 Plain Text
Заголовок : Full
Язык : Estonian
Default : Нет
Forced : Нет
Текст #6
Идентификатор : 13
Формат : UTF-8
Идентификатор кодека : S_TEXT/UTF8
Идентификатор кодека/Информация : UTF-8 Plain Text
Заголовок : Forced
Язык : Ukrainian
Default : Нет
Forced : Нет
Текст #7
Идентификатор : 14
Формат : UTF-8
Идентификатор кодека : S_TEXT/UTF8
Идентификатор кодека/Информация : UTF-8 Plain Text
Заголовок : Full
Язык : Ukrainian
Default : Нет
Forced : Нет
Текст #8
Идентификатор : 15
Формат : UTF-8
Идентификатор кодека : S_TEXT/UTF8
Идентификатор кодека/Информация : UTF-8 Plain Text
Заголовок : Full
Язык : English
Default : Нет
Forced : Нет
Меню
00:00:00.000 : en:Chapter 01
00:08:48.444 : en:Chapter 02
00:11:03.412 : en:Chapter 03
00:14:33.747 : en:Chapter 04
00:21:21.071 : en:Chapter 05
00:27:25.143 : en:Chapter 06
00:30:33.540 : en:Chapter 07
00:36:49.081 : en:Chapter 08
00:42:41.350 : en:Chapter 09
00:45:58.672 : en:Chapter 10
00:50:35.949 : en:Chapter 11
00:57:03.586 : en:Chapter 12
01:02:35.293 : en:Chapter 13
01:09:07.768 : en:Chapter 14
01:14:39.474 : en:Chapter 15
01:19:34.478 : en:Chapter 16





Релиз от: Сборка:



   Похожие торренты   Торрент   Размер 
В этой теме нет новых непрочитанных сообщений. Смурфики: Затерянная деревня / Smurfs: The Lost Village (2017) BDRip-AVC от OlLanDGroup | Лицензия

13 | 6

745.84 МБ

В этой теме нет новых непрочитанных сообщений. Смурфики: Затерянная деревня / Smurfs: The Lost Village (2017) UHD BDRemux 2160p от ExKinoRay | 4K | HDR | Лицензия

6 | 11

35.57 ГБ

В этой теме нет новых непрочитанных сообщений. Смурфики: Затерянная деревня / Smurfs: The Lost Village (2017) BDRemux 1080p от ExKinoRay | iTunes

62 | 19

17.91 ГБ

В этой теме нет новых непрочитанных сообщений. Смурфики: Затерянная деревня / Smurfs: The Lost Village (2017) BDRemux 1080p от ExKinoRay | 3D-Video | iTunes

27 | 8

25.53 ГБ

В этой теме нет новых непрочитанных сообщений. Смурфики: Затерянная деревня / Smurfs: The Lost Village (2017) Blu-Ray CEE 1080p от New-Team | Лицензия

6 | 11

32.78 ГБ

В этой теме нет новых непрочитанных сообщений. Смурфики: Затерянная деревня / Smurfs: The Lost Village (2017) BDRip 1080p | Лицензия

67 | 21

11.54 ГБ

В этой теме нет новых непрочитанных сообщений. Смурфики: Затерянная деревня / Smurfs: The Lost Village (2017) BDRip 720p | Лицензия

136 | 37

6.18 ГБ




Вы не можете начинать темы
Вы не можете отвечать на сообщения
Вы не можете редактировать свои сообщения
Вы не можете удалять свои сообщения
Вы не можете добавлять вложения

Перейти:  
Для Мосгорсуда, Роскомнадзора и рекламодателей: mosgorsud-torrent[собачка]yandex.ru
 Вход
ppkBB3cker v.2 © 2008-2014 @ PPK
[ Time : 0.044s | 17 Queries | GZIP : Off ]

Торрент трекер RUTOR.IN, Не можете зайти на rutor.org? Какой новый адрес рутор? Какое зеркало рутор? Не работает rutor.org и зеркала? Тогда наш торрент специально для вас. Rutor.in неофициальное зеркало rutor. В случае если у Вас заблокирован rutor или вдруг Вы не можете на него зайти, то Вы без труда сможете скачать бесплатно и без рекламы последние новинки кино, игр, сериалов и прочего у нас, на Rutor.in. Не нужно использовать прокси, чтобы зайти на рутор, достаточно воспользоваться нашим ресурсом. Все новые фильмы, игры, сериалы, книги и музыка за 2013 и 2014 годы через торрент бесплатно. Скачивайте фильмы в хорошем качестве, игры для пк, xbox, playstation без регистрации. У нас вы найдете новые Зарубежные сериалы и Русские сериалы 2013, 2014, 2015 годов. Оставайтесь с нами, качайте любимые фильмы, игры, сериалы, книги и музыку.
cron