img image001 image001 image001 image001 image001 image001 image001 image001 image001 image001 image001 image001 image001 image001 image001

Planets Sun Sun Sun
Статистика раздачи
Автор: Nickolas3434 | Размер: 742.01 МБ | Добавлен: 10 окт 2017
Раздают: 15    Качают: 4
Скачать торрент
Скачать торрент
Описание торрента

СообщениеДобавлено: 10 окт 2017 




#77

Информация о мультфильме
Название: Гадкий я 2
Оригинальное название: Despicable Me 2
Год выхода: 2013
Жанр: мультфильм, фантастика, комедия, приключения, семейный
Режиссер: Пьер Коффан, Крис Рено
Актёры: Стив Карелл, Кристен Уиг, Бенджамин Брэтт, Миранда Косгров, Расселл Брэнд, Кен Жонг, Стив Куган, Элси Фишер, Дэна Гайер, Мойзес Ариас
Описание:
В то время как Грю, бывший суперзлодей, приспосабливается к семейной жизни и пытается честным трудом зарабатывать в сфере бизнеса, тайные лаборатории Арктики оказываются украденными. Анти-Злодейская лига решает, что она нуждается в помощи Грю и его новобранцев в расследовании.
Бюджет: $76 000 000

Страна: США
Студия: Illumination Entertainment, Universal Pictures
Продолжительность: 01:37:58
Перевод: Профессиональный (полное дублирование)
Файл
Формат: MKV
Качество: BDRip-AVC (Blu-Ray Remux 1080p)
Видео: MPEG-4 AVC, 736x398 (1.85:1) at 23.976 fps, ~908 kbps
Аудио #1: русский, AAC-LC, 2 ch, 48 kHz, 76 kbps
Аудио #2: английский, AAC-LC, 2 ch, 48 kHz, 72 kbps
Субтитры: русские (форсированные, полные), английские
Семпл
General
Unique ID : 176799071544930726415962192325097331495 (0x85024339F04E5CFCA8D0D511B5E49B27)
Complete name : C:UsersDownloadsDespicable Me 2.2013.BDRip-AVC.mkv
Format : Matroska
Format version : Version 4 / Version 2
File size : 742 MiB
Duration : 1 h 37 min
Overall bit rate : 1 059 kb/s
Encoded date : UTC 2017-10-08 07:19:23
Writing application : mkvmerge v9.6.0 ('Slave To Your Mind') 64bit
Writing library : libebml v1.3.4 + libmatroska v1.4.5
Video
ID : 1
Format : AVC
Format/Info : Advanced Video Codec
Format profile : High@L4.1
Format settings : CABAC / 6 Ref Frames
Format settings, CABAC : Yes
Format settings, RefFrames : 6 frames
Codec ID : V_MPEG4/ISO/AVC
Duration : 1 h 37 min
Bit rate : 908 kb/s
Width : 736 pixels
Height : 398 pixels
Display aspect ratio : 1.85:1
Frame rate mode : Constant
Frame rate : 23.976 (24000/1001) FPS
Color space : YUV
Chroma subsampling : 4:2:0
Bit depth : 8 bits
Scan type : Progressive
Bits/(Pixel*Frame) : 0.129
Stream size : 636 MiB (86%)
Writing library : x264 core 146 r2538 121396c
Encoding settings : cabac=1 / ref=6 / deblock=1:0:0 / analyse=0x3:0x113 / me=umh / subme=10 / psy=1 / psy_rd=1.00:0.00 / mixed_ref=1 / me_range=32 / chroma_me=1 / trellis=2 / 8x8dct=1 / cqm=0 / deadzone=21,11 / fast_pskip=0 / chroma_qp_offset=-2 / threads=6 / lookahead_threads=1 / sliced_threads=0 / nr=0 / decimate=1 / interlaced=0 / bluray_compat=0 / constrained_intra=0 / bframes=8 / b_pyramid=2 / b_adapt=2 / b_bias=0 / direct=3 / weightb=1 / open_gop=0 / weightp=2 / keyint=240 / keyint_min=23 / scenecut=40 / intra_refresh=0 / rc_lookahead=40 / rc=2pass / mbtree=1 / bitrate=908 / ratetol=1.0 / qcomp=0.60 / qpmin=0 / qpmax=69 / qpstep=4 / cplxblur=20.0 / qblur=0.5 / vbv_maxrate=50000 / vbv_bufsize=62500 / nal_hrd=none / filler=0 / ip_ratio=1.40 / aq=1:0.90
Default : Yes
Forced : No
Audio #1
ID : 2
Format : AAC
Format/Info : Advanced Audio Codec
Format profile : LC
Codec ID : A_AAC-2
Duration : 1 h 37 min
Bit rate : 76.0 kb/s
Channel(s) : 2 channels
Channel positions : Front: L R
Sampling rate : 48.0 kHz
Frame rate : 46.875 FPS (1024 SPF)
Compression mode : Lossy
Delay relative to video : 9 ms
Stream size : 53.3 MiB (7%)
Language : Russian
Default : Yes
Forced : No
Audio #2
ID : 3
Format : AAC
Format/Info : Advanced Audio Codec
Format profile : LC
Codec ID : A_AAC-2
Duration : 1 h 37 min
Bit rate : 72.0 kb/s
Channel(s) : 2 channels
Channel positions : Front: L R
Sampling rate : 48.0 kHz
Frame rate : 46.875 FPS (1024 SPF)
Compression mode : Lossy
Delay relative to video : 9 ms
Stream size : 50.5 MiB (7%)
Language : English
Default : No
Forced : No
Text #1
ID : 4
Format : UTF-8
Codec ID : S_TEXT/UTF8
Codec ID/Info : UTF-8 Plain Text
Duration : 1 h 8 min
Bit rate : 0 b/s
Count of elements : 10
Stream size : 217 Bytes (0%)
Title : Forced
Language : Russian
Default : Yes
Forced : No
Text #2
ID : 5
Format : UTF-8
Codec ID : S_TEXT/UTF8
Codec ID/Info : UTF-8 Plain Text
Duration : 1 h 29 min
Bit rate : 64 b/s
Count of elements : 917
Stream size : 42.1 KiB (0%)
Title : Full
Language : Russian
Default : No
Forced : No
Text #3
ID : 6
Format : UTF-8
Codec ID : S_TEXT/UTF8
Codec ID/Info : UTF-8 Plain Text
Duration : 1 h 33 min
Bit rate : 40 b/s
Count of elements : 1082
Stream size : 27.7 KiB (0%)
Title : Full
Language : English
Default : No
Forced : No




   Похожие торренты   Торрент   Размер 
В этой теме нет новых непрочитанных сообщений. Гадкий я 2 / Despicable Me 2 (2013) BDRip от HQ-ViDEO

582 | 106

1.77 ГБ

В этой теме нет новых непрочитанных сообщений. Гадкий я 2 / Despicable Me 2 (2013) BDRip от HQCLUB | Лицензия

10711 | 331

1.45 ГБ

В этой теме нет новых непрочитанных сообщений. Гадкий я 2 / Despicable Me 2 (2013) BDRip от New-Team | iPhone

328 | 5

1.21 ГБ

В этой теме нет новых непрочитанных сообщений. Гадкий я 2 / Despicable Me 2 (2013) BDRip 1080 | 60fps | Лицензия

13 | 1

12.6 ГБ

В этой теме нет новых непрочитанных сообщений. Гадкий я 2 / Despicable Me 2 (2013) BDRip 720p от HQ-ViDEO | + 3 Мини-мультфильма

868 | 138

5.69 ГБ

В этой теме нет новых непрочитанных сообщений. Гадкий я: Дилогия / Despicable Me: Dilogy (2010-2013) BDRip 720p

261 | 30

8.74 ГБ

В этой теме нет новых непрочитанных сообщений. Гадкий я: Дилогия / Despicable Me: Dilogy (2010-2013) BDRip 720p от HELLYWOOD | D, P, A

322 | 10

11.52 ГБ




Вы не можете начинать темы
Вы не можете отвечать на сообщения
Вы не можете редактировать свои сообщения
Вы не можете удалять свои сообщения
Вы не можете добавлять вложения

Перейти:  
Для Мосгорсуда, Роскомнадзора и рекламодателей: mosgorsud-torrent[собачка]yandex.ru
 Вход
ppkBB3cker v.2 © 2008-2014 @ PPK
[ Time : 0.030s | 18 Queries | GZIP : Off ]

cron