img image001 image001 image001 image001 image001 image001 image001 image001 image001 image001 image001 image001 image001 image001 image001

Planets Sun Sun Sun
Статистика раздачи
Автор: Nickolas3434 | Размер: 745.58 МБ | Добавлен: 10 окт 2017
Раздают: 172    Качают: 15
Скачать торрент
Скачать торрент
Описание торрента

СообщениеДобавлено: 10 окт 2017 



Наша группа ВКонтакте
Присоединяйтесь!

Босс-молокосос
The Boss Baby
«Прирождённый лидер»


Страна: США
Жанр: мультфильм, комедия, семейный
Год выпуска: 2017
Продолжительность: 01:37:30
Перевод: Профессиональный (полное дублирование) [Blu-ray EUR]
Субтитры: русские (форсированные, полные)
Оригинальная аудиодорожка: нет
Режиссер: Том МакГрат / Tom McGrath
В ролях: Алек Болдуин, Майлз Кристофер Бакши, Тоби Магуайр, Стив Бушеми, Джимми Киммел, Лиза Кудроу, Конрад Вернон, Джеймс МакГрат, Дэвид Сорен, ВивиЭнн Йи, Эрик Белл мл., Эди Мирман
Описание:
Эта актуальная во все времена история для взрослых и детей рассказывается от лица семилетнего брата новорожденного - фантазера Тима, который ревнует его к родителям. Но главный герой - совсем не простой ребенок, он обладает лидерскими задатками, уже носит деловые костюмы и во всем видит бизнес-задачу.

Релиз:
Автор рипа: stalkerok
Сэмпл
Качество видео: BDRip-AVC [The Boss Baby (2017) Blu-Ray EUR 1080p]
Формат видео: MKV
Видео кодек: AVC
Аудио кодек: AAC
Видео: 1004 Кбит/сек, 800*340 (2,35:1), в 23,976 (24000/1001) кадра/сек, AVC
Аудио: русский, 64,0 Кбит/сек, 48,0 КГц / 24,0 КГц, 2 канала, AAC (HE-AAC / LC)
Навигация по главам: есть

x264 [info]: frame I:1337 Avg QP:16.49 size: 34526
x264 [info]: frame P:36441 Avg QP:21.84 size: 9612
x264 [info]: frame B:102501 Avg QP:23.21 size: 3289
Общее
Уникальный идентификатор : 248192653962544617874576187094619735847 (0xBAB82A9AC91B49D6ABC135B656014727)
Полное имя : M:!Rips2017The Boss BabyThe.Boss.Baby.2017.BDRip-AVC.RUS..stalkerok.new-team.mkv
Формат : Matroska
Версия формата : Version 4 / Version 2
Размер файла : 746 Мбайт
Продолжительность : 1 ч. 37 м.
Общий поток : 1069 Кбит/сек
Название фильма : The Boss Baby (2017) (Rip by stalkerok)
Дата кодирования : UTC 2017-10-08 12:36:24
Программа кодирования : mkvmerge v8.6.1 ('Flying') 64bit
Библиотека кодирования : libebml v1.3.3 + libmatroska v1.4.4
Видео
Идентификатор : 1
Формат : AVC
Формат/Информация : Advanced Video Codec
Профиль формата : High@L4.1
Параметр CABAC формата : Да
Параметр ReFrames формата : 16 кадров
Идентификатор кодека : V_MPEG4/ISO/AVC
Продолжительность : 1 ч. 37 м.
Битрейт : 1004 Кбит/сек
Ширина : 800 пикселей
Высота : 340 пикселей
Соотношение сторон : 2,35:1
Режим частоты кадров : Постоянный
Частота кадров : 23,976 (24000/1001) кадра/сек
Цветовое пространство : YUV
Субдискретизация насыщенности : 4:2:0
Битовая глубина : 8 бит
Тип развёртки : Прогрессивная
Бит/(Пиксели*Кадры) : 0.154
Размер потока : 700 Мбайт (94%)
Заголовок : The Boss Baby (2017) (Rip by stalkerok)
Библиотека кодирования : x264 core 150 r2833kMod df79067
Настройки программы : cabac=1 / ref=16 / deblock=1:-3:-2 / analyse=0x3:0x133 / me=umh / subme=11 / psy=1 / fade_compensate=0.00 / psy_rd=1.00:0.00 / mixed_ref=1 / me_range=32 / chroma_me=1 / trellis=2 / 8x8dct=1 / cqm=0 / deadzone=21,11 / fast_pskip=0 / chroma_qp_offset=-2 / threads=11 / lookahead_threads=2 / sliced_threads=0 / nr=0 / decimate=0 / interlaced=0 / bluray_compat=0 / constrained_intra=0 / bframes=16 / b_pyramid=2 / b_adapt=2 / b_bias=0 / direct=3 / weightb=1 / open_gop=0 / weightp=2 / keyint=240 / keyint_min=23 / scenecut=40 / intra_refresh=0 / rc_lookahead=60 / rc=2pass / mbtree=0 / bitrate=1004 / ratetol=1.0 / qcomp=0.65 / qpmin=0 / qpmax=69 / qpstep=4 / cplxblur=20.0 / qblur=0.5 / vbv_maxrate=50000 / vbv_bufsize=62500 / nal_hrd=none / filler=0 / ip_ratio=1.40 / pb_ratio=1.20 / aq=3:0.90 / zones=126011,139783,q=34
Default : Да
Forced : Нет
Аудио
Идентификатор : 2
Формат : AAC
Формат/Информация : Advanced Audio Codec
Профиль формата : HE-AAC / LC
Идентификатор кодека : A_AAC
Продолжительность : 1 ч. 37 м.
Битрейт : 64,0 Кбит/сек
Каналы : 2 канала
Расположение каналов : Front: L R
Частота : 48,0 КГц / 24,0 КГц
Частота кадров : 23,438 кадра/сек (1024 spf)
Метод сжатия : С потерями
Задержка видео : 31 мс.
Размер потока : 44,6 Мбайт (6%)
Язык : Russian
Default : Да
Forced : Нет
Текст #1
Идентификатор : 3
Формат : UTF-8
Идентификатор кодека : S_TEXT/UTF8
Идентификатор кодека/Информация : UTF-8 Plain Text
Продолжительность : 1 ч. 19 м.
Битрейт : 0 бит/сек
Count of elements : 21
Размер потока : 437 байт (0%)
Заголовок : Forced
Язык : Russian
Default : Да
Forced : Нет
Текст #2
Идентификатор : 4
Формат : UTF-8
Идентификатор кодека : S_TEXT/UTF8
Идентификатор кодека/Информация : UTF-8 Plain Text
Продолжительность : 1 ч. 36 м.
Битрейт : 93 бит/сек
Count of elements : 1587
Размер потока : 65,9 Кбайт (0%)
Язык : Russian
Default : Нет
Forced : Нет
Меню
00:00:00.000 : en:Chapter 1
00:03:45.892 : en:Chapter 2
00:08:58.287 : en:Chapter 3
00:11:45.913 : en:Chapter 4
00:14:59.565 : en:Chapter 5
00:19:38.218 : en:Chapter 6
00:22:52.788 : en:Chapter 7
00:28:27.247 : en:Chapter 8
00:30:26.115 : en:Chapter 9
00:33:45.481 : en:Chapter 10
00:36:57.256 : en:Chapter 11
00:39:18.356 : en:Chapter 12
00:42:35.344 : en:Chapter 13
00:46:20.611 : en:Chapter 14
00:51:37.719 : en:Chapter 15
00:53:25.285 : en:Chapter 16
00:56:28.718 : en:Chapter 17
00:59:35.405 : en:Chapter 18
01:04:03.172 : en:Chapter 19
01:08:15.758 : en:Chapter 20
01:11:29.910 : en:Chapter 21
01:16:25.247 : en:Chapter 22
01:23:10.110 : en:Chapter 23
01:27:36.960 : en:Chapter 24





   Похожие торренты   Торрент   Размер 
В этой теме нет новых непрочитанных сообщений. Босс-молокосос / The Boss Baby (2017) BDRip-AVC от New-Team | Лицензия

203 | 5

2.15 ГБ

В этой теме нет новых непрочитанных сообщений. Босс-молокосос / The Boss Baby (2017) BDRip-AVC от New-Team | Лицензия

306 | 8

1.49 ГБ

В этой теме нет новых непрочитанных сообщений. Босс-молокосос / The Boss Baby (2017) BDRip от Seven | Лицензия

148 | 12

2.18 ГБ

В этой теме нет новых непрочитанных сообщений. Босс-молокосос / The Boss Baby (2017) BDRip | Лицензия

813 | 24

1.46 ГБ

В этой теме нет новых непрочитанных сообщений. Босс-молокосос / The Boss Baby (2017) BDRip | Лицензия

94 | 13

746.25 МБ

В этой теме нет новых непрочитанных сообщений. Босс-молокосос / The Boss Baby (2017) BDRip 1080p от New-Team & qqss44 | iTunes

393 | 36

5.58 ГБ

В этой теме нет новых непрочитанных сообщений. Босс-молокосос / The Boss Baby (2017) BDRip 1080p | Лицензия

243 | 25

10.63 ГБ




Вы не можете начинать темы
Вы не можете отвечать на сообщения
Вы не можете редактировать свои сообщения
Вы не можете удалять свои сообщения
Вы не можете добавлять вложения

Перейти:  
Для Мосгорсуда, Роскомнадзора и рекламодателей: mosgorsud-torrent[собачка]yandex.ru
 Вход
ppkBB3cker v.2 © 2008-2014 @ PPK
[ Time : 0.047s | 18 Queries | GZIP : Off ]

cron