img image001 image001 image001 image001 image001 image001 image001 image001 image001 image001 image001 image001 image001 image001 image001

Planets Sun Sun Sun
Статистика раздачи
Автор: Nickolas3434 | Размер: 746.87 МБ | Добавлен: 10 окт 2017
Раздают: 23    Качают: 4
Скачать торрент
Скачать торрент
Описание торрента

СообщениеДобавлено: 10 окт 2017 

«Если они не эволюционируют, то станут историей»



#77
Информация о мультфильме
Название: Семейка Крудс
Оригинальное название: The Croods
Год выхода: 2013
Жанр: мультфильм, комедия, приключения, семейный
Режиссер: Кирк де Микко, Крис Сандерс
Актёры: Эмма Стоун, Райан Рейнольдс, Николас Кейдж, Кэтрин Кинер, Клорис Личмен, Кларк Дьюк, Крис Сандерс
Описание: Чего только не сделаешь ради сохранения семьи, несмотря на то, что она доисторическая! Вот и мужественный глава семейства был твёрдо уверен - главное не позволять никогда и ничего менять и всегда жить "как в каменном веке" - по своим привычным правилам, в своей известной вдоль и поперёк пещере! И может, всё бы так и было бы, но однажды землетрясение нарушает привычный жизненный уклад и вынуждает срочно искать другую, неизвестную пока, пещеру, в непонятном и переменчивом мире, полном страшных опасностей и разных незнакомцев всех видов и мастей! Будет ли той семейке и на новом месте веселее вместе и что поможет ей выжить и достичь заветной цели?
Бюджет: $135 000 000

Страна: США
Студия: DreamWorks Animation
Продолжительность: 01:38:36
Перевод: Профессиональный (полное дублирование)
Файл
Формат: MKV
Качество: HDRip-AVC (исх. BDRip 720p)
Видео: MPEG-4 AVC, 784x334 (2.35:1) at 23.976 fps, ~863 kbps
Аудио #1: AAC-LC, 2 ch, 48 kHz, 64 kbps | русский дубляж
Аудио #2: AAC-LC, 2 ch, 48 kHz, 64 kbps | украинский дубляж
Аудио #3: AAC-LC, 2 ch, 48 kHz, 64 kbps | английский, оригинал
Субтитры: русские (форсированные, полные (2 вида)), украинские, английские
Семпл
General
Unique ID : 197994846523225049813507347429271986137 (0x94F46B9DB7EFFF9F83602AC2B1AADFD9)
Complete name : C:UsersDownloadsThe Croods.2013.HDRip-AVC.mkv
Format : Matroska
Format version : Version 4 / Version 2
File size : 747 MiB
Duration : 1 h 38 min
Overall bit rate : 1 059 kb/s
Encoded date : UTC 2017-10-09 15:04:25
Writing application : mkvmerge v9.6.0 ('Slave To Your Mind') 64bit
Writing library : libebml v1.3.4 + libmatroska v1.4.5
Video
ID : 1
Format : AVC
Format/Info : Advanced Video Codec
Format profile : High@L4.1
Format settings : CABAC / 6 Ref Frames
Format settings, CABAC : Yes
Format settings, RefFrames : 6 frames
Codec ID : V_MPEG4/ISO/AVC
Duration : 1 h 38 min
Bit rate : 863 kb/s
Width : 784 pixels
Height : 334 pixels
Display aspect ratio : 2.35:1
Frame rate mode : Constant
Frame rate : 23.976 FPS
Color space : YUV
Chroma subsampling : 4:2:0
Bit depth : 8 bits
Scan type : Progressive
Bits/(Pixel*Frame) : 0.137
Stream size : 609 MiB (81%)
Writing library : x264 core 146 r2538 121396c
Encoding settings : cabac=1 / ref=6 / deblock=1:0:0 / analyse=0x3:0x113 / me=umh / subme=11 / psy=1 / psy_rd=1.00:0.00 / mixed_ref=1 / me_range=32 / chroma_me=1 / trellis=2 / 8x8dct=1 / cqm=0 / deadzone=21,11 / fast_pskip=0 / chroma_qp_offset=-2 / threads=6 / lookahead_threads=1 / sliced_threads=0 / nr=0 / decimate=0 / interlaced=0 / bluray_compat=0 / constrained_intra=0 / bframes=8 / b_pyramid=2 / b_adapt=2 / b_bias=0 / direct=3 / weightb=1 / open_gop=0 / weightp=2 / keyint=240 / keyint_min=23 / scenecut=40 / intra_refresh=0 / rc_lookahead=40 / rc=2pass / mbtree=1 / bitrate=863 / ratetol=1.0 / qcomp=0.60 / qpmin=0 / qpmax=69 / qpstep=4 / cplxblur=20.0 / qblur=0.5 / vbv_maxrate=50000 / vbv_bufsize=62500 / nal_hrd=none / filler=0 / ip_ratio=1.40 / aq=1:1.00
Language : English
Default : Yes
Forced : No
Audio #1
ID : 2
Format : AAC
Format/Info : Advanced Audio Codec
Format profile : LC
Codec ID : A_AAC-2
Duration : 1 h 38 min
Bit rate : 64.0 kb/s
Channel(s) : 2 channels
Channel positions : Front: L R
Sampling rate : 48.0 kHz
Frame rate : 46.875 FPS (1024 SPF)
Compression mode : Lossy
Delay relative to video : 9 ms
Stream size : 45.1 MiB (6%)
Language : Russian
Default : Yes
Forced : No
Audio #2
ID : 3
Format : AAC
Format/Info : Advanced Audio Codec
Format profile : LC
Codec ID : A_AAC-2
Duration : 1 h 38 min
Bit rate : 64.0 kb/s
Channel(s) : 2 channels
Channel positions : Front: L R
Sampling rate : 48.0 kHz
Frame rate : 46.875 FPS (1024 SPF)
Compression mode : Lossy
Delay relative to video : 9 ms
Stream size : 45.1 MiB (6%)
Language : Ukrainian
Default : No
Forced : No
Audio #3
ID : 4
Format : AAC
Format/Info : Advanced Audio Codec
Format profile : LC
Codec ID : A_AAC-2
Duration : 1 h 38 min
Bit rate : 64.0 kb/s
Channel(s) : 2 channels
Channel positions : Front: L R
Sampling rate : 48.0 kHz
Frame rate : 46.875 FPS (1024 SPF)
Compression mode : Lossy
Delay relative to video : 9 ms
Stream size : 45.1 MiB (6%)
Language : English
Default : No
Forced : No
Text #1
ID : 5
Format : UTF-8
Codec ID : S_TEXT/UTF8
Codec ID/Info : UTF-8 Plain Text
Duration : 1 h 25 min
Bit rate : 0 b/s
Count of elements : 2
Stream size : 39.0 Bytes (0%)
Title : Forced
Language : Russian
Default : Yes
Forced : No
Text #2
ID : 6
Format : UTF-8
Codec ID : S_TEXT/UTF8
Codec ID/Info : UTF-8 Plain Text
Duration : 1 h 29 min
Bit rate : 66 b/s
Count of elements : 830
Stream size : 43.2 KiB (0%)
Title : Full [Voronin]
Language : Russian
Default : No
Forced : No
Text #3
ID : 7
Format : UTF-8
Codec ID : S_TEXT/UTF8
Codec ID/Info : UTF-8 Plain Text
Duration : 1 h 28 min
Bit rate : 64 b/s
Count of elements : 1022
Stream size : 42.2 KiB (0%)
Title : Full
Language : Russian
Default : No
Forced : No
Text #4
ID : 8
Format : UTF-8
Codec ID : S_TEXT/UTF8
Codec ID/Info : UTF-8 Plain Text
Duration : 1 h 37 min
Bit rate : 61 b/s
Count of elements : 1022
Stream size : 43.7 KiB (0%)
Title : Full
Language : Ukrainian
Default : No
Forced : No
Text #5
ID : 9
Format : UTF-8
Codec ID : S_TEXT/UTF8
Codec ID/Info : UTF-8 Plain Text
Duration : 1 h 28 min
Bit rate : 39 b/s
Count of elements : 1021
Stream size : 25.4 KiB (0%)
Title : Full
Language : English
Default : No
Forced : No




   Похожие торренты   Торрент   Размер 
В этой теме нет новых непрочитанных сообщений. Семейка Крудс / The Croods (2013) HDRip | Трейлер

82 | 4

107.33 МБ

В этой теме нет новых непрочитанных сообщений. Семейка Крудс / The Croods (2013) BDRip

1761 | 94

2.19 ГБ

В этой теме нет новых непрочитанных сообщений. Семейка Крудс / The Croods (2013) BDRip-AVC | D, A

154 | 13

3.1 ГБ

В этой теме нет новых непрочитанных сообщений. Семейка Крудс / The Croods (2013) BDRip-AVC | iPhone

570 | 20

1.51 ГБ

В этой теме нет новых непрочитанных сообщений. OST - Семейка Крудс / The Croods [Original Soundtrack] (2013) MP3

14 | 2

167 МБ

В этой теме нет новых непрочитанных сообщений. Семейка Крудс / The Croods (2013) BDRip 1080p | 60 fps | D, A

708 | 76

9.85 ГБ

В этой теме нет новых непрочитанных сообщений. Семейка Крудс / The Croods (2013) DVDRip от -=HD-NET=-| КПК | D | Лицензия

204 | 10

441.15 МБ




Вы не можете начинать темы
Вы не можете отвечать на сообщения
Вы не можете редактировать свои сообщения
Вы не можете удалять свои сообщения
Вы не можете добавлять вложения

Перейти:  
Для Мосгорсуда, Роскомнадзора и рекламодателей: mosgorsud-torrent[собачка]yandex.ru
 Вход
ppkBB3cker v.2 © 2008-2014 @ PPK
[ Time : 0.061s | 18 Queries | GZIP : Off ]

Торрент трекер RUTOR.IN, Не можете зайти на rutor.org? Какой новый адрес рутор? Какое зеркало рутор? Не работает rutor.org и зеркала? Тогда наш торрент специально для вас. Rutor.in неофициальное зеркало rutor. В случае если у Вас заблокирован rutor или вдруг Вы не можете на него зайти, то Вы без труда сможете скачать бесплатно и без рекламы последние новинки кино, игр, сериалов и прочего у нас, на Rutor.in. Не нужно использовать прокси, чтобы зайти на рутор, достаточно воспользоваться нашим ресурсом. Все новые фильмы, игры, сериалы, книги и музыка за 2013 и 2014 годы через торрент бесплатно. Скачивайте фильмы в хорошем качестве, игры для пк, xbox, playstation без регистрации. У нас вы найдете новые Зарубежные сериалы и Русские сериалы 2013, 2014, 2015 годов. Оставайтесь с нами, качайте любимые фильмы, игры, сериалы, книги и музыку.
cron