img image001 image001 image001 image001 image001 image001 image001 image001 image001 image001 image001 image001 image001 image001 image001

Planets Sun Sun Sun
Статистика раздачи
Автор: Nickolas3434 | Размер: 1.09 ГБ | Добавлен: 04 дек 2017
Раздают: 18    Качают: 1
Скачать торрент
Скачать торрент
Описание торрента

СообщениеДобавлено: 04 дек 2017 


Мы "В КОНТАКТЕ"


Страна: СССР
Производство: Союзмультфильм
Жанр: мультфильм, фэнтези, приключения, семейный
Год выпуска: 1959
Продолжительность: 01:04:22
Перевод: Не требуется
Cубтитры: нет
Оригинальная аудиодорожка: русский
Режиссер: Дмитрий Бабиченко, Иван Иванов-Вано
Роли озвучивали:
Нина Гуляева, Евгений Весник, Георгий Вицин, Тамара Дмитриева, Маргарита Корабельникова, Александр Баранов, Елена Понсова, Владимир Лепко, Татьяна Струкова, Юлия Юльская, Владимир Ратомский, Мария Виноградова, Леонид Пирогов, Эраст Гарин, Сергей Мартинсон, Анастасия Зуева, Юрий Хржановский, Григорий Шпигель...
Об актёрах подробней
Описание:
Экранизация сказки А.Н.Толстого.
История приключений деревянной куклы Буратино, вырезанной из полена шарманщиком Карло.





Источник: DVD5 R5
Качество видео: DVDRip
Формат видео: AVI
Видео: 720x544 (4:3), 25 fps, XviD ~ 1965 kbps avg, 0.201 bit/pixel
Аудио: 48 kHz, Dolby Digital AC3 5.1, 448 kbps
Раздача от:
Общее
Полное имя : Prikluchenie.Buratino.1959.DVDRip_[New-team]_by_AVP_Studio.avi
Формат : AVI
Формат/Информация : Audio Video Interleave
Размер файла : 1,09 Гбайт
Продолжительность : 1 ч. 4 м.
Общий поток : 2422 Кбит/сек
Программа кодирования : VirtualDubMod 1.5.10.3 | www.virtualdub-fr.org || (build 2550/release)
Библиотека кодирования : VirtualDubMod build 2550/release
Видео
Идентификатор : 0
Формат : MPEG-4 Visual
Профиль формата : Advanced Simple@L5
Настройки формата : BVOP1 / Custom Matrix
Параметр BVOP формата : 1
Параметр QPel формата : Нет
Параметр GMC формата : Без точки перехода
Параметр матрицы формата : Выборочная
Идентификатор кодека : XVID
Идентификатор кодека/Подсказка : XviD
Продолжительность : 1 ч. 4 м.
Битрейт : 1965 Кбит/сек
Ширина : 720 пикселей
Высота : 544 пикселя
Соотношение сторон : 4:3
Частота кадров : 25,000 кадров/сек
Цветовое пространство : YUV
Субдискретизация насыщенности : 4:2:0
Битовая глубина : 8 бит
Тип развёртки : Прогрессивная
Метод сжатия : С потерями
Бит/(Пиксели*Кадры) : 0.201
Размер потока : 904 Мбайт (81%)
Библиотека кодирования : XviD 73
Аудио
Идентификатор : 1
Формат : AC-3
Формат/Информация : Audio Coding 3
Идентификатор кодека : 2000
Продолжительность : 1 ч. 4 м.
Вид битрейта : Постоянный
Битрейт : 448 Кбит/сек
Каналы : 6 каналов
Расположение каналов : Front: L C R, Side: L R, LFE
Частота : 48,0 КГц
Частота кадров : 31,250 кадров/сек (1536 SPF)
Битовая глубина : 16 бит
Метод сжатия : С потерями
Задержка видео : 360 мс.
Размер потока : 206 Мбайт (18%)
Выравнивание : Разделение по промежуткам
Продолжительность промежутка : 40 мс. (1,00 видеокадр)
Время предзагрузки промежутка : 500 мс





   Похожие торренты   Торрент   Размер 
В этой теме нет новых непрочитанных сообщений. Приключения Буратино (1959) DVDRip от New-Team

23 | 0

744.57 МБ

В этой теме нет новых непрочитанных сообщений. Приключения Буратино (1959) DVDRip-AVC от New-Team

38 | 1

1.09 ГБ

В этой теме нет новых непрочитанных сообщений. Приключения Буратино (1959) DVDRip

47 | 31

699.09 МБ

В этой теме нет новых непрочитанных сообщений. Приключения Буратино (1959) DVDRip от MediaClub | КПК

402 | 22

291.63 МБ

В этой теме нет новых непрочитанных сообщений. Приключения Буратино (1959) DVDRip от ExKinoRay

610 | 30

1.32 ГБ

В этой теме нет новых непрочитанных сообщений. Приключения Буратино (1959) DVDRip-AVC | Лицензия | Pеставрация

56 | 0

1.31 ГБ

В этой теме нет новых непрочитанных сообщений. Приключения Буратино / ремастер (1959) DVD5 by гаврила

18 | 2

3.78 ГБ




Вы не можете начинать темы
Вы не можете отвечать на сообщения
Вы не можете редактировать свои сообщения
Вы не можете удалять свои сообщения
Вы не можете добавлять вложения

Перейти:  
Для Мосгорсуда, Роскомнадзора и рекламодателей: mosgorsud-torrent[собачка]yandex.ru
 Вход
ppkBB3cker v.2 © 2008-2014 @ PPK
[ Time : 0.037s | 17 Queries | GZIP : Off ]

cron