img image001 image001 image001 image001 image001 image001 image001 image001 image001 image001 image001 image001 image001 image001 image001 image001

Planets Sun Sun Sun
Статистика раздачи
Автор: Nickolas3434 | Размер: 1.37 ГБ | Добавлен: 17 дек 2017
Раздают: 0    Качают: 0
Скачать торрент
Скачать торрент
Описание торрента

СообщениеДобавлено: 17 дек 2017 

Информация о фильме
Название: Дозор джунглей
Оригинальное название: Les as de la jungle
Год выхода: 2017
Жанр: Мультфильм, комедия, приключения, семейный
Режиссер: Дэвид Ало
В ролях: Пол Борн, Филипп Бозо, Паскаль Касанова, Эммануэль Кюртиль, Мишель Меля, Селин Монсарра, Лоран Морто, Жан-Филипп Пюмартин, Барбара Тиссье, Алексис Томассиан
О фильме:
В центре внимания находится бесстрашная команда разношерстных животных под названием «Дозор джунглей»: пингвин Морис, вообразивший себя тигром из-за своего необычного окраса, золотая рыбка, отважная горилла Мигель и умный не по годам малыш-долгопят Гилберт. Вместе с энергичной командой Морис неусыпно следит за порядком и справедливостью, хоть и получается это у героев далеко не всегда. Вскоре мирному устройству и покою в джунглях начинает угрожать хитрая коала Игорь со своей армией туповатых бабуинов, и банда Мориса сделает всё, чтобы остановить коварного и безжалостного врага.

Страна: Франция
Студия: TAT Productions, Master Films, Vanilla Seed, France Télévisions, Centre National de la Cinématographie (CNC), Région Midi-Pyrénées, Procirep, Angoa
Продолжительность: 01:37:06
Перевод: Дублированный (iTunes)
Файл
Кодек: XviD / AC3
Качество: HDRip
Видео: MPEG4, XviD, 720x304 (2.35:1), 24.000 fps, 1 622 Kbps (0.309 bit/pixel)
Звук: AC-3, 48.0 KHz, 6 ch, 384 Kbps, CBR
Семпл
Общее
Полное имя : Dozor dzhunglej 2017 HDRip.avi
Формат : AVI
Формат/Информация : Audio Video Interleave
Размер файла : 1,37 Гбайт
Продолжительность : 1 ч. 37 м.
Общий поток : 2015 Кбит/сек
Программа кодирования : VirtualDubMod 1.5.10.2 (build 2540/release)
Видео
Идентификатор : 0
Формат : MPEG-4 Visual
Профиль формата : Advanced Simple@L5
Параметр BVOP формата : 2
Параметр QPel формата : Нет
Параметр GMC формата : Без точки перехода
Параметр матрицы формата : Default (MPEG)
Идентификатор кодека : XVID
Идентификатор кодека/Подсказка : XviD
Продолжительность : 1 ч. 37 м.
Битрейт : 1622 Кбит/сек
Ширина : 720 пикселей
Высота : 304 пикселя
Соотношение сторон : 2,35:1
Частота кадров : 24,000 кадра/сек
Цветовое пространство : YUV
Субдискретизация насыщенности : 4:2:0
Битовая глубина : 8 бит
Тип развёртки : Прогрессивная
Метод сжатия : С потерями
Бит/(Пиксели*Кадры) : 0.309
Размер потока : 1,10 Гбайт (80%)
Библиотека кодирования : XviD 1.2.1 (UTC 2008-12-04)
Аудио
Идентификатор : 1
Формат : AC-3
Формат/Информация : Audio Coding 3
Параметр Endianness формата : Big
Идентификатор кодека : 2000
Продолжительность : 1 ч. 37 м.
Вид битрейта : Постоянный
Битрейт : 384 Кбит/сек
Каналы : 6 каналов
Расположение каналов : Front: L C R, Side: L R, LFE
Частота : 48,0 КГц
Частота кадров : 31,250 кадров/сек (1536 SPF)
Битовая глубина : 16 бит
Метод сжатия : С потерями
Размер потока : 267 Мбайт (19%)
Выравнивание : Разделение по промежуткам
Продолжительность промежутка : 42 мс. (1,00 видеокадр)
Время предзагрузки промежутка : 500 мс.
ServiceKind/String : Complete Main



   Похожие торренты   Торрент   Размер 
В этой теме нет новых непрочитанных сообщений. Дозор джунглей / Les as de la jungle (2017) HDRip | iTunes

1251 | 26

1.37 ГБ

В этой теме нет новых непрочитанных сообщений. Дозор джунглей / Les as de la jungle (2017) BDRip 1080p | D

221 | 11

1.99 ГБ

В этой теме нет новых непрочитанных сообщений. Дозор джунглей / Les as de la jungle (2017) Blu-ray 1080p | Rus Transfer | Лицензия

0 | 0

19.98 ГБ

В этой теме нет новых непрочитанных сообщений. Дозор джунглей / Les as de la jungle (2017) BDRip от MegaPeer | Rus Transfer | Лицензия

21 | 0

745.28 МБ

В этой теме нет новых непрочитанных сообщений. Дозор джунглей / Les as de la jungle (2017) BDRip-AVC от Kaztorrents | Rus Transfer | Лицензия

8 | 0

1.46 ГБ

В этой теме нет новых непрочитанных сообщений. Дозор джунглей / Les as de la jungle (2017) BDRip от ExKinoRay | Rus Transfer | Лицензия

89 | 4

1.46 ГБ

В этой теме нет новых непрочитанных сообщений. Дозор джунглей / Les as de la jungle (2017) BDRip от MegaPeer | Rus Transfer | Лицензия

16 | 1

1.46 ГБ




Вы не можете начинать темы
Вы не можете отвечать на сообщения
Вы не можете редактировать свои сообщения
Вы не можете удалять свои сообщения
Вы не можете добавлять вложения

Перейти:  
 Вход
ppkBB3cker v.2 © 2008-2014 @ PPK
[ Time : 0.027s | 17 Queries | GZIP : Off ]

cron