img image001 image001 image001 image001 image001 image001 image001 image001 image001 image001 image001 image001 image001 image001 image001 image001

Planets Sun Sun Sun
Статистика раздачи
Автор: Nickolas3434 | Размер: 44.68 ГБ | Добавлен: 17 дек 2017
Раздают: 11    Качают: 4
Скачать торрент
Скачать торрент
Описание торрента

СообщениеДобавлено: 17 дек 2017 

Информация о фильме
Название: Angry Birds в кино
Оригинальное название: The Angry Birds Movie
Год выхода: 2016
Жанр: Мультфильм, боевик, комедия, семейный
Режиссер: Клэй Кэйтис, Фергал Рейли
В ролях: Питер Динклэйдж, Джейсон Судейкис, Кейт МакКиннон, Кигэн-Майкл Ки, Титус Берджесс, Шон Пенн, Билл Хейдер, Майя Рудольф, Айк Баринхолц, Дэнни МакБрайд
О фильме:
Из-за своего буйного нрава Ред постоянно попадает в различные передряги. После очередного фонтана агрессии местный суд приговаривает его к бессрочному посещению курсов управления гневом. Между делом, на птичий остров приплывают зеленые свиньи и обманом выкрадывают у птичек все их яйца. Ред и его друзья отправляются на поиски легендарного Могучего Орла, чтобы заручиться его поддержкой и вернуть похищенное.

Страна: Финляндия, США
Студия: Columbia Pictures, LStar Capital, Rovio Entertainment
Продолжительность: 01:37:14
Перевод: Дублированный | Лицензия
Файл
Качество: BDRemux 2160p
Видео: MPEG-H HEVC HDR Video, 3840x2160, 59.7 Mbit/s, 23.976 fps
Звук:
Аудио #01: 48 kHz, AC3, 5.1, 640 Kbps | Дублированный | RUS |
Аудио #02: 48 kHz, TrueHD, 7.1, 4747 Kbps | Оригинал | ENG |
Аудио #03: 48 kHz, AC3, 5.1, 640 Kbps | Оригинал | ENG |
Субтитры: Русские (forced, full), английские

General
Unique ID : 180775088712127747133029725140399551744 (0x88000401F739BFA98BDB24E6453DF500)
Complete name : G:VideoSSDThe.Angry.Birds.Movie.2016.BDREMUX.2160p.4K.UltraHD.HEVC.HDR.ExKinoRay.mkv
Format : Matroska
Format version : Version 4 / Version 2
File size : 44.7 GiB
Duration : 1 h 37 min
Overall bit rate mode : Variable
Overall bit rate : 65.8 Mb/s
Movie name : The Angry Birds Movie 2016 from ExKinoRay
Encoded date : UTC 2017-12-15 11:47:57
Writing application : mkvmerge v18.0.0 ('Apricity') 64-bit
Writing library : libebml v1.3.5 + libmatroska v1.4.8
Video
ID : 1
Format : HEVC
Format/Info : High Efficiency Video Coding
Format profile : Main 10@L5.1@High
Codec ID : V_MPEGH/ISO/HEVC
Duration : 1 h 37 min
Bit rate : 59.7 Mb/s
Width : 3 840 pixels
Height : 2 160 pixels
Display aspect ratio : 16:9
Frame rate mode : Constant
Frame rate : 23.976 (24000/1001) FPS
Color space : YUV
Chroma subsampling : 4:2:0 (Type 2)
Bit depth : 10 bits
Bits/(Pixel*Frame) : 0.300
Stream size : 40.5 GiB (91%)
Language : English
Default : Yes
Forced : No
Color range : Limited
Color primaries : BT.2020
Transfer characteristics : PQ
Matrix coefficients : BT.2020 non-constant
Mastering display color pri : R: x=0.680000 y=0.320000, G: x=0.265000 y=0.690000, B: x=0.150000 y=0.060000, White point: x=0.312700 y=0.329000
Mastering display luminance : min: 0.0050 cd/m2, max: 4000.0000 cd/m2
Maximum Content Light Level : 414 cd/m2
Maximum Frame-Average Light : 233 cd/m2
Audio #1
ID : 2
Format : AC-3
Format/Info : Audio Coding 3
Format settings, Endianness : Big
Codec ID : A_AC3
Duration : 1 h 37 min
Bit rate mode : Constant
Bit rate : 640 kb/s
Channel(s) : 6 channels
Channel positions : Front: L C R, Side: L R, LFE
Sampling rate : 48.0 kHz
Frame rate : 31.250 FPS (1536 SPF)
Bit depth : 16 bits
Compression mode : Lossy
Stream size : 445 MiB (1%)
Title : Dub [License]
Language : Russian
Service kind : Complete Main
Default : Yes
Forced : No
Audio #2
ID : 3
Format : TrueHD
Format profile : TrueHD+Atmos / TrueHD
Codec ID : A_TRUEHD
Duration : 1 h 37 min
Bit rate mode : Variable
Bit rate : 4 747 kb/s
Maximum bit rate : 6 972 kb/s
Channel(s) : Object Based / 8 channels
Channel positions : Object Based / Front: L C R, Side: L R, Back: L R, LFE
Sampling rate : / 48.0 kHz
Frame rate : 1 200.000 FPS (40 SPF)
Compression mode : Lossless
Stream size : 3.22 GiB (7%)
Title : Original
Language : English
Default : No
Forced : No
Audio #3
ID : 4
Format : AC-3
Format/Info : Audio Coding 3
Format settings, Endianness : Big
Codec ID : A_AC3
Duration : 1 h 37 min
Bit rate mode : Constant
Bit rate : 640 kb/s
Channel(s) : 6 channels
Channel positions : Front: L C R, Side: L R, LFE
Sampling rate : 48.0 kHz
Frame rate : 31.250 FPS (1536 SPF)
Bit depth : 16 bits
Compression mode : Lossy
Stream size : 445 MiB (1%)
Language : English
Service kind : Complete Main
Default : No
Forced : No
Text #1
ID : 5
Format : UTF-8
Codec ID : S_TEXT/UTF8
Codec ID/Info : UTF-8 Plain Text
Duration : 1 h 25 min
Bit rate : 2 b/s
Count of elements : 54
Stream size : 1.71 KiB (0%)
Title : Forced
Language : Russian
Default : Yes
Forced : No
Text #2
ID : 6
Format : UTF-8
Codec ID : S_TEXT/UTF8
Codec ID/Info : UTF-8 Plain Text
Duration : 1 h 29 min
Bit rate : 99 b/s
Count of elements : 1579
Stream size : 65.1 KiB (0%)
Title : Full
Language : Russian
Default : No
Forced : No
Text #3
ID : 7
Format : UTF-8
Codec ID : S_TEXT/UTF8
Codec ID/Info : UTF-8 Plain Text
Duration : 1 h 29 min
Bit rate : 64 b/s
Count of elements : 1518
Stream size : 42.0 KiB (0%)
Title : Full
Language : English
Default : No
Forced : No
Text #4
ID : 8
Format : UTF-8
Codec ID : S_TEXT/UTF8
Codec ID/Info : UTF-8 Plain Text
Duration : 1 h 32 min
Bit rate : 89 b/s
Count of elements : 2275
Stream size : 60.5 KiB (0%)
Title : SDH
Language : English
Default : No
Forced : No
Menu
00:00:00.000 : en:00:00:00.000
00:07:05.091 : en:00:07:05.091
00:13:38.109 : en:00:13:38.109
00:20:22.638 : en:00:20:22.638
00:25:38.620 : en:00:25:38.620
00:32:57.392 : en:00:32:57.392
00:38:34.812 : en:00:38:34.812
00:41:36.327 : en:00:41:36.327
00:47:12.955 : en:00:47:12.955
00:52:04.288 : en:00:52:04.288
00:56:07.698 : en:00:56:07.698
00:59:08.712 : en:00:59:08.712
01:03:43.319 : en:01:03:43.319
01:11:45.801 : en:01:11:45.801
01:18:55.522 : en:01:18:55.522
01:23:54.821 : en:01:23:54.821

Релиз от: Автор релиза:
Подпишись на меня, кликни по картинке > :



   Похожие торренты   Торрент   Размер 
В этой теме нет новых непрочитанных сообщений. Angry Birds в кино / The Angry Birds Movie (2016) BDRemux 1080p от ExKinoRay | iTunes

307 | 40

18.83 ГБ

В этой теме нет новых непрочитанных сообщений. Angry Birds в кино / The Angry Birds Movie (2016) BDRip от ExKinoRay | Лицензия

5 | 0

1.46 ГБ

В этой теме нет новых непрочитанных сообщений. Angry Birds в кино / The Angry Birds Movie (2016) BDRip 1080p от ExKinoRay | iTunes

993 | 70

8.41 ГБ

В этой теме нет новых непрочитанных сообщений. Angry Birds в кино / The Angry Birds Movie (2016) BDRip-AVC от ExKinoRay | iTunes Russia

189 | 12

745.02 МБ

В этой теме нет новых непрочитанных сообщений. Angry Birds в кино / The Angry Birds Movie (2016) BDRip-AVC от ExKinoRay | iTunes Russia

14919 | 684

1.42 ГБ

В этой теме нет новых непрочитанных сообщений. Angry Birds в кино / The Angry Birds Movie (2016) BDRip от ExKinoRay | iTunes Russia

288 | 7

1.42 ГБ

В этой теме нет новых непрочитанных сообщений. Angry Birds в кино / The Angry Birds Movie (2016) BDRip 720p от ExKinoRay | iTunes

991 | 36

4.76 ГБ




Вы не можете начинать темы
Вы не можете отвечать на сообщения
Вы не можете редактировать свои сообщения
Вы не можете удалять свои сообщения
Вы не можете добавлять вложения

Перейти:  
 Вход
ppkBB3cker v.2 © 2008-2014 @ PPK
[ Time : 0.034s | 15 Queries | GZIP : Off ]

cron