img image001 image001 image001 image001 image001 image001 image001 image001 image001 image001 image001 image001 image001 image001 image001 image001

Planets Sun Sun Sun
Статистика раздачи
Автор: Nickolas3434 | Размер: 1.87 ГБ | Добавлен: 04 янв 2018
Раздают: 67    Качают: 2
Скачать торрент
Скачать торрент
Описание торрента

СообщениеДобавлено: 04 янв 2018 

Тяжелый металл 2000 / Heavy Metal 2000

Выпущено: США
Жанр: Анимация/Боевик
Год выпуска: 2000
Продолжительность: 01:27:54
Перевод: Профессиональный (многоголосый, закадровый)
Режиссер: Майкл Колдуэй
В ролях: Майкл Айронсайд, Билли Айдл
О Фильме: В далеком прошлом галактиками правили аракианцы, питавшие силу из великого источника бессмертия. Спустя века после их гибели ключ к нему нашел коварный злодей Тайлер, вознамерившийся подчинить себе вселенную. Но на его пути к магическому источнику, спрятанному в каменных палатах на далекой планете Юроборис, встала могучая воительница, которая будет преследовать Тайлера в ледяных глубинах бескрайнего космоса, обыскивая неведомые миры, населенные жестокими разбойниками, таинственными магами и невероятными созданиями, до тех пор,пока безжалостный тиран своей кровью не заплатит за гибель ее родной планеты.

Кодек: х264
Качество: DVDRip-AVC
Видео: MPEG-4 AVC, 720x464@853x464, 23,976 fps, 2150 Кбит/с
Аудио 1: Русский AC3, 6 ch, 448 Кбит/с, Профессиональный (многоголосый, закадровый)
Аудио 2: Английский AC3, 6 ch, 448 Кбит/с, Оригинал


x264 [info]: frame I:1061 Avg QP:13.36 size: 83446
x264 [info]: frame P:30978 Avg QP:16.95 size: 26185
x264 [info]: frame B:94417 Avg QP:18.84 size: 5489
Общее
Уникальный идентификатор : 243121402781137877041882032319773938913 (0xB6E77A9E0644FECAA1AFB017A6AE14E1)
Полное имя : E:Мои рипыТяжелый металл 2000_DVDRip AVC_KORSAR .mkv
Формат : Matroska
Версия формата : Version 2
Размер файла : 1,87 Гбайт
Продолжительность : 1 ч. 27 м.
Общий поток : 3049 Кбит/сек
Дата кодирования : UTC 2018-01-01 13:15:32
Программа кодирования : mkvmerge v5.8.0 ('No Sleep / Pillow') built on Sep 2 2012 15:37:04
Библиотека кодирования : libebml v1.2.3 + libmatroska v1.3.0
Видео
Идентификатор : 1
Формат : AVC
Формат/Информация : Advanced Video Codec
Профиль формата : High@L4.1
Настройки формата : CABAC / 15 Ref Frames
Параметр CABAC формата : Да
Параметр RefFrames формата : 15 кадров
Идентификатор кодека : V_MPEG4/ISO/AVC
Продолжительность : 1 ч. 27 м.
Битрейт : 2150 Кбит/сек
Ширина : 720 пикселей
Высота : 464 пикселя
Соотношение сторон : 1,85:1
Соотношение сторон в оригинале : 1,85:1
Режим частоты кадров : Постоянный
Частота кадров : 23,976 (24000/1001) кадра/сек
Цветовое пространство : YUV
Субдискретизация насыщенности : 4:2:0
Битовая глубина : 8 бит
Тип развёртки : Прогрессивная
Бит/(Пиксели*Кадры) : 0.268
Размер потока : 1,28 Гбайт (69%)
Библиотека кодирования : x264 core 152 r2851kMod ba24899
Настройки программы : cabac=1 / ref=15 / deblock=1:-2:-2 / analyse=0x3:0x133 / me=umh / subme=11 / psy=1 / fade_compensate=0.00 / psy_rd=1.05:0.10 / mixed_ref=1 / me_range=48 / chroma_me=1 / trellis=2 / 8x8dct=1 / cqm=0 / deadzone=21,11 / fast_pskip=0 / chroma_qp_offset=-3 / threads=12 / lookahead_threads=3 / sliced_threads=0 / nr=0 / decimate=0 / interlaced=0 / bluray_compat=0 / constrained_intra=0 / bframes=12 / b_pyramid=2 / b_adapt=2 / b_bias=0 / direct=3 / weightb=1 / open_gop=0 / weightp=2 / keyint=250 / keyint_min=23 / scenecut=40 / intra_refresh=0 / rc_lookahead=40 / rc=2pass / mbtree=0 / bitrate=2150 / ratetol=1.0 / qcomp=0.60 / qpmin=0 / qpmax=39 / qpstep=4 / cplxblur=20.0 / qblur=0.5 / vbv_maxrate=50000 / vbv_bufsize=62500 / nal_hrd=none / filler=0 / ip_ratio=1.40 / pb_ratio=1.30 / aq=1:0.90
Язык : English
Default : Да
Forced : Нет
Цветовой диапазон : Limited
Основные цвета : BT.601 PAL
Характеристики трансфера : BT.470 System B, BT.470 System G
Коэффициенты матрицы : BT.470 System B, BT.470 System G
Аудио #1
Идентификатор : 2
Формат : AC-3
Формат/Информация : Audio Coding 3
Параметр Endianness формата : Big
Идентификатор кодека : A_AC3
Продолжительность : 1 ч. 27 м.
Вид битрейта : Постоянный
Битрейт : 448 Кбит/сек
Каналы : 6 каналов
Расположение каналов : Front: L C R, Side: L R, LFE
Частота : 48,0 КГц
Частота кадров : 31,250 кадров/сек (1536 SPF)
Битовая глубина : 16 бит
Метод сжатия : С потерями
Размер потока : 282 Мбайт (15%)
Заголовок : Профессиональный (многоголосый, закадровый)
Язык : Russian
Default : Да
Forced : Нет
Аудио #2
Идентификатор : 3
Формат : AC-3
Формат/Информация : Audio Coding 3
Параметр Endianness формата : Big
Идентификатор кодека : A_AC3
Продолжительность : 1 ч. 27 м.
Вид битрейта : Постоянный
Битрейт : 448 Кбит/сек
Каналы : 6 каналов
Расположение каналов : Front: L C R, Side: L R, LFE
Частота : 48,0 КГц
Частота кадров : 31,250 кадров/сек (1536 SPF)
Битовая глубина : 16 бит
Метод сжатия : С потерями
Размер потока : 282 Мбайт (15%)
Заголовок : original
Язык : English
Default : Нет
Forced : Нет




   Похожие торренты   Торрент   Размер 
В этой теме нет новых непрочитанных сообщений. Тяжелый металл 2000 / Heavy Metal 2000 (2000) DVDRip

34 | 6

1.35 ГБ

В этой теме нет новых непрочитанных сообщений. Тяжёлый металл 2000 / Heavy Metal 2000 / Heavy Metal: F.A.K.K. 2 (2000) DVDRip-AVC | P

596 | 94

2.08 ГБ

В этой теме нет новых непрочитанных сообщений. Тяжелый металл / Heavy Metal (1981) BDRip 720р от KORSAR | D, P, А

58 | 1

5.66 ГБ

В этой теме нет новых непрочитанных сообщений. Тяжелый металл / Heavy Metal (1981) DVDRip

254 | 11

1.45 ГБ

В этой теме нет новых непрочитанных сообщений. Тяжелый металл / Heavy Metal (1981) BDRip от SilverCinema

3 | 6

1.46 ГБ

В этой теме нет новых непрочитанных сообщений. Тяжёлый металл / Heavy Metal (1981) BDRip от MediaClub | P

73 | 129

1.73 ГБ

В этой теме нет новых непрочитанных сообщений. Тяжелый металл / Heavy Metal (1981) BDRip-AVC от SilverCinema

45 | 3

2.02 ГБ




Вы не можете начинать темы
Вы не можете отвечать на сообщения
Вы не можете редактировать свои сообщения
Вы не можете удалять свои сообщения
Вы не можете добавлять вложения

Перейти:  
 Вход
ppkBB3cker v.2 © 2008-2014 @ PPK
[ Time : 0.028s | 18 Queries | GZIP : Off ]

cron