img image001 image001 image001 image001 image001 image001 image001 image001 image001 image001 image001 image001 image001 image001 image001 image001

Planets Sun Sun Sun
Статистика раздачи
Автор: Снежана | Размер: 376.14 МБ | Добавлен: 21 фев 2018
Раздают: 6    Качают: 10
Скачать торрент
Скачать торрент
Описание торрента

СообщениеДобавлено: 21 фев 2018 

Космо-Рубеж / Final Space

Перевод: Любительский (двухголосый), NewStation по субтитрам Жени Спицына

Субтитры: нет

Формат: WEB-DL, AVI, XviD, MP3
Страна: США
Режиссер: Олэн Роджерс, Джейк Сидвелл
Жанр: Приключения, фантастика, мультфильм

Продолжительность: 2x ~00:22:00
Год выпуска: 2018
В ролях: Митчелл Дэвис, Коути Гэлловэй, Олэн Роджерс, Джейк Сидвелл

Описание: Астронавт по имени Гэри и его уничтожающий планеты приятель, называемый себя Мункейк, приступают к путешествиям по космосу, чтобы разгадать тайну того, где вселенная заканчивается и действительно ли она существует.

Видео: 720x400 (4:2:0), 23.976 fps, XviD build 62 ~1100 kbps avg, 0.15 bit/pixel
Аудио #1 Rus: 48 kHz, MPEG Layer 3, 2 ch, ~128.00 kbps avg
Аудио #1 Eng: 48 kHz, MPEG Layer 3, 2 ch, ~128.00 kbps avg

Реклама: Отсутствует

Внимание! Раздача ведётся путём добавления новых серий; при каждом добавлении создаётся новый торрент. Чтобы начать докачку новой серии, пользователям необходимо сделать следующее:
(1) остановить скачивание,
(2) удалить старый торрент у себя из клиента (старые серии удалять не надо),
(3) скачать новый торрент и запустить его у себя в клиенте вместо старого, при этом указать клиенту путь в старую папку куда и должно происходить скачивание новых серий.

Ваш клиент при этом должен произвести хеширование (проверку) старой папки (если не производит сам - помогите ему сделать это), и будет докачивать только те серии которых у вас ещё нет. Старые серии при этом не удаляются, а продолжают раздаваться!

Eсли вы уже удалили старые серии, то предотвратить повторную закачку старых серий можно, отжав галочку в соответствующих местах при запуске нового торрента. По возможности, желательно не удалять старые серии как можно дольше, чтобы релизёр не столько продолжал раздавать старые серии, а смог сконцентрироваться на новых.



General
Complete name : D:\NewStation\Final.Space.S01.WEB-DL.NewStation\Final.Space.S01E01.WEB-DL.NewStation.avi
Format : AVI
Format/Info : Audio Video Interleave
File size : 209 MiB
Duration : 21 min 18 s
Overall bit rate : 1 370 kb/s
Writing application : VirtualDubModRus 1.5.10.2 (build 2542/release)
Writing library : VirtualDubMod build 2542/release

Video
ID : 0
Format : MPEG-4 Visual
Format profile : Advanced Simple@L5
Format settings, BVOP : No
Format settings, QPel : No
Format settings, GMC : No warppoints
Format settings, Matrix : Default (H.263)
Codec ID : XVID
Codec ID/Hint : XviD
Duration : 21 min 18 s
Bit rate : 1 100 kb/s
Width : 720 pixels
Height : 404 pixels
Display aspect ratio : 16:9
Frame rate : 23.976 (24000/1001) FPS
Color space : YUV
Chroma subsampling : 4:2:0
Bit depth : 8 bits
Scan type : Progressive
Compression mode : Lossy
Bits/(Pixel*Frame) : 0.158
Stream size : 168 MiB (80%)
Writing library : XviD 62

Audio #1
ID : 1
Format : MPEG Audio
Format version : Version 1
Format profile : Layer 3
Codec ID : 55
Codec ID/Hint : MP3
Duration : 21 min 18 s
Bit rate mode : Constant
Bit rate : 128 kb/s
Channel(s) : 2 channels
Sampling rate : 48.0 kHz
Compression mode : Lossy
Stream size : 19.5 MiB (9%)
Alignment : Split accross interleaves
Interleave, duration : 42 ms (1.00 video frame)
Interleave, preload duration : 500 ms
Writing library : LAMELAME_MAJOR_VERSI

Audio #2
ID : 2
Format : MPEG Audio
Format version : Version 1
Format profile : Layer 3
Format settings : Joint stereo
Codec ID : 55
Codec ID/Hint : MP3
Duration : 21 min 18 s
Bit rate mode : Constant
Bit rate : 128 kb/s
Channel(s) : 2 channels
Sampling rate : 48.0 kHz
Compression mode : Lossy
Stream size : 19.5 MiB (9%)
Alignment : Aligned on interleaves
Interleave, duration : 42 ms (1.00 video frame)
Interleave, preload duration : 504 ms
Writing library : LAME3.99.5







   Похожие торренты   Торрент   Размер 
В этой теме нет новых непрочитанных сообщений. Космо-Рубеж / Final Space 1 сезон 1-2 серии из 6 [NewStation] (Олэн Роджерс) [2018, Приключения, фантастика, мультфильм, WEB-DL 1080p] DVO+Original

4 | 16

1.79 ГБ

В этой теме нет новых непрочитанных сообщений. Космо-Рубеж, 1 сезон 1-2 серии из 6 / Final Space [NewStation] (Олэн Роджерс) [2018, Приключения, фантастика, мультфильм, WEB-DL 720p] DVO+Original + Eng Sub

1 | 6

2.59 ГБ

В этой теме нет новых непрочитанных сообщений. Космо-Рубеж, 1 сезон 1-2 серии из 6 / Final Space [NewStation] (Олэн Роджерс) [2018, приключения, фантастика, мультфильм, WEB-DL 1080p] DVO+Original + Eng Sub

2 | 5

3.92 ГБ

В этой теме нет новых непрочитанных сообщений. Космо-Рубеж, 1 сезон 1-8 серии из 10 / Final Space (Олэн Роджерс) [2018, приключения, фантастика, мультфильм, WEB-DLRip] DVO +Original

4 | 8

1.86 ГБ

В этой теме нет новых непрочитанных сообщений. Космо-Рубеж, 1 сезон 1-6 серии из 10 / Final Space (Олэн Роджерс) [2018, приключения, фантастика, мультфильм, WEB-DLRip] DVO +Original

3 | 6

1.43 ГБ

В этой теме нет новых непрочитанных сообщений. Космо-Рубеж, 1 сезон 1-4 серии из 6 / Final Space (Олэн Роджерс) [2018, приключения, фантастика, мультфильм, WEB-DLRip] DVO +Original

11 | 5

1.01 ГБ

В этой теме нет новых непрочитанных сообщений. Космо-Рубеж, 1 сезон 1-7 серии из 10 / Final Space (Олэн Роджерс) [2018, приключения, фантастика, мультфильм, WEB-DLRip] DVO +Original

9 | 3

1.64 ГБ




Вы не можете начинать темы
Вы не можете отвечать на сообщения
Вы не можете редактировать свои сообщения
Вы не можете удалять свои сообщения
Вы не можете добавлять вложения

Перейти:  
 Вход
ppkBB3cker v.2 © 2008-2014 @ PPK
[ Time : 0.056s | 18 Queries | GZIP : Off ]

cron