img image001 image001 image001 image001 image001 image001 image001 image001 image001 image001 image001 image001 image001 image001 image001 image001

Planets Sun Sun Sun
Статистика раздачи
Автор: Снежана | Размер: 1.56 ГБ | Добавлен: 06 апр 2018
Раздают: 10    Качают: 0
Скачать торрент
Скачать торрент
Описание торрента

СообщениеДобавлено: 06 апр 2018 

Бабка Ёжка и другие / Бабка Ёжка и другие

Перевод: Не требуется, cубтитры: отсутствуют
Формат: BDRip-AVC, MKV, H.264, AC3
Страна: Россия / United Multimedia Projeckts
Режиссер: Валерий Угаров
Жанр: мультфильм, детский, приключения
Продолжительность: 01:13:10
Год выпуска: 2006
В ролях: Армен Джигарханян, Михаил Кокшенов, Татьяна Бондаренко, Александр Пожаров, Алексей Колган, Дмитрий Филимонов, Анна Орёл

Описание: История маленькой девочки, по воле судьбы попавшей к сказочным персонажам, обитающим в дремучем лесу. Это — Баба-яга, Леший, Кикимора, Водяной, Кощей — герои русских народных сказок, так называемая «нечистая сила».



Видео: 1024x576(16:9), 23.976 fps, AVC MPEG-4 (H.264), ~2600 kbps, 0.184 bit/pixel
Аудио: 48 kHz, AC3 Dolby Digital, 3/2 (L,C,R,l,r) + LFE ch, ~448 kbps [Лицензия]
Общее
Уникальный идентификатор : 43234764905887810738480419921316011572 (0x2086B67C7DA66C56CD9DA9EE7497DE34)
Полное имя : F:\Диск\04. МУЛЬТФИЛЬМЫ\Бабка Ёжка и другие (2006)\Babka Jozka I Drugie (2006).mkv
Формат : Matroska
Версия формата : Version 4 / Version 2
Размер файла : 1,56 Гбайт
Продолжительность : 1 ч. 13 м.
Общий поток : 3047 Кбит/сек
Программа кодирования : XviD4PSP 7.0.448 DAILY
Библиотека кодирования : Lavf57.71.100
Примечание : Rip by Basma4i&TorrNADO
ErrorDetectionType : Per level 1
ENCODING_INFO : MATROSKA,WEBM > MKV Пользовательский / H264 > X264 ABR 2600kbps HQ / AC3 > AC3 CBR 448kbps

Видео
Идентификатор : 1
Формат : AVC
Формат/Информация : Advanced Video Codec
Профиль формата :
Настройки формата : CABAC / 9 Ref Frames
Параметр CABAC формата : Да
Параметр RefFrames формата : 9 кадров
Идентификатор кодека : V_MPEG4/ISO/AVC
Продолжительность : 1 ч. 13 м.
Битрейт : 2600 Кбит/сек
Ширина : 1024 пикселя
Высота : 576 пикселей
Соотношение сторон : 16:9
Режим частоты кадров : Постоянный
Частота кадров : 23,976 (24000/1001) кадра/сек
Цветовое пространство : YUV
Субдискретизация насыщенности : 4:2:0
Битовая глубина : 8 бит
Тип развёртки : Прогрессивная
Бит/(Пиксели*Кадры) : 0.184
Размер потока : 1,30 Гбайт (83%)
Библиотека кодирования : x264 core 155 r2901M 7d0ff22
Настройки программы : cabac=1 / ref=10 / deblock=1:-2:-2 / analyse=0x3:0x133 / me=umh / subme=9 / psy=1 / psy_rd=1.00:0.20 / mixed_ref=1 / me_range=32 / chroma_me=1 / trellis=2 / 8x8dct=1 / cqm=0 / deadzone=21,11 / fast_pskip=1 / chroma_qp_offset=-3 / threads=11 / lookahead_threads=1 / sliced_threads=0 / nr=0 / decimate=1 / interlaced=0 / bluray_compat=0 / constrained_intra=0 / bframes=10 / b_pyramid=1 / b_adapt=1 / b_bias=10 / direct=1 / weightb=1 / open_gop=0 / weightp=1 / keyint=240 / keyint_min=24 / scenecut=40 / intra_refresh=0 / rc_lookahead=40 / rc=abr / mbtree=1 / bitrate=2600 / ratetol=1.0 / qcomp=0.60 / qpmin=0 / qpmax=69 / qpstep=8 / ip_ratio=1.40 / aq=1:1.00
Язык : English
Default : Да
Forced : Нет
Цветовой диапазон : Limited
Основные цвета : BT.709
Характеристики трансфера : BT.709
Коэффициенты матрицы : BT.709

Аудио
Идентификатор : 2
Формат : AC-3
Формат/Информация : Audio Coding 3
Идентификатор кодека : A_AC3
Продолжительность : 1 ч. 13 м.
Вид битрейта : Постоянный
Битрейт : 448 Кбит/сек
Каналы : 6 каналов
Расположение каналов : Front: L C R, Side: L R, LFE
Частота : 48,0 КГц
Частота кадров : 31,250 кадров/сек (1536 SPF)
Битовая глубина : 16 бит
Метод сжатия : С потерями
Размер потока : 234 Мбайт (15%)
Язык : Russian
ServiceKind/String : Complete Main
Default : Да
Forced : Нет







Релиз от:



   Похожие торренты   Торрент   Размер 
В этой теме нет новых непрочитанных сообщений. Бабка Ёжка и другие (2006) BDRip 720p

77 | 5

2.5 ГБ

В этой теме нет новых непрочитанных сообщений. Бабка Ёжка и другие (2006) BDRip-AVC от NovaLan

2 | 5

1.05 ГБ

В этой теме нет новых непрочитанных сообщений. Бабка Ёжка и другие (2006) BDRip от HQCLUB

37 | 9

1.09 ГБ

В этой теме нет новых непрочитанных сообщений. Бабка Ёжка и другие (2006) BDRip 1080p

22 | 8

4 ГБ

В этой теме нет новых непрочитанных сообщений. Бабка Ёжка и другие (2006) BDRip-AVC от FireBit

22 | 3

1.46 ГБ

В этой теме нет новых непрочитанных сообщений. Бабка Ёжка и другие (2006) Blu-Ray

2 | 5

17.72 ГБ

В этой теме нет новых непрочитанных сообщений. Бабка Ёжка и другие (2006) BDRip 1080p от ExKinoRay

209 | 28

3.9 ГБ




Вы не можете начинать темы
Вы не можете отвечать на сообщения
Вы не можете редактировать свои сообщения
Вы не можете удалять свои сообщения
Вы не можете добавлять вложения

Перейти:  
 Вход
ppkBB3cker v.2 © 2008-2014 @ PPK
[ Time : 0.033s | 16 Queries | GZIP : Off ]

cron