img image001 image001 image001 image001 image001 image001 image001 image001 image001 image001 image001 image001 image001 image001 image001 image001

Planets Sun Sun Sun
Статистика раздачи
Автор: Снежана | Размер: 744.34 МБ | Добавлен: 13 апр 2018
Раздают: 24    Качают: 0
Скачать торрент
Скачать торрент
Описание торрента

СообщениеДобавлено: 13 апр 2018 

Самый пьяный округ в мире / Lawless

Перевод: Профессиональный (полное дублирование), субтитры : русские
Формат: BDRip-AVC, MKV, H.264, AAC
Страна: США
Режиссер: Джон Хиллкоут
Жанр: драма, криминал
Продолжительность: 01:56:23
Год выпуска: 2012

В ролях: Шайа ЛаБаф, Том Харди, Гари Олдман, Джессика Честейн, Гай Пирс, Миа Васиковска, Дэйн ДеХаан, Ноа Тейлор, Джейсон Кларк, Лью Темпл, Билл Кэмп, Брюс МакКиннон

Описание: Действие в картине разворачивается на американском Юге во времена сухого закона и Великой Депрессии. В центре сюжета — семья Бондурант, три брата, Джек, Форрест и Говард, которые занимаются запрещенным в то время бизнесом, бутлегерством.
Оптимистично настроенный Джек, самый молодой из братьев, надеется с помощью бутлегерства заработать денег и произвести впечатление на свою девушку Берту. В это же время Форрест, напротив, настроен очень мрачно, он молчалив и подозрителен, а Говарду к тому же часто приходится иметь дело с врагами незаконного семейного бизнеса, в лице которых выступают коррумпированные местные полицейские.




Видео: 796x332 (2.40:1), 23.976 fps, AVC (H.264), ~830 kbps, 0.131 bit/pixel
Аудио: 48 kHz, AАС-HE, 2 ch, ~64 kbps

Формат : Matroska
Версия формата : Version 4 / Version 2
Размер файла : 744 Мбайт
Продолжительность : 1 ч. 56 м.
Общий поток : 894 Кбит/сек
Название фильма : Lawless (2012) (Rip by stalkerok)
Дата кодирования : UTC 2018-03-21 10:44:10
Программа кодирования : mkvmerge v8.6.1 ('Flying') 64bit
Библиотека кодирования : libebml v1.3.3 + libmatroska v1.4.4

Видео
Идентификатор : 3
Формат : AVC
Формат/Информация : Advanced Video Codec
Профиль формата :
Параметр CABAC формата : Да
Параметр ReFrames формата : 16 кадров
Идентификатор кодека : V_MPEG4/ISO/AVC
Продолжительность : 1 ч. 56 м.
Битрейт : 830 Кбит/сек
Ширина : 796 пикселей
Высота : 332 пикселя
Соотношение сторон : 2,40:1
Режим частоты кадров : Постоянный
Частота кадров : 23,976 (24000/1001) кадра/сек
Цветовое пространство : YUV
Субдискретизация насыщенности : 4:2:0
Битовая глубина : 8 бит
Тип развёртки : Прогрессивная
Бит/(Пиксели*Кадры) : 0.131
Размер потока : 690 Мбайт (93%)
Заголовок : Lawless (2012) (Rip by stalkerok)
Библиотека кодирования : x264 core 155 r2901 7d0ff22
Настройки программы : cabac=1 / ref=16 / deblock=1:-2:-1 / analyse=0x3:0x133 / me=umh / subme=11 / psy=1 / psy_rd=1.00:0.00 / mixed_ref=1 / me_range=32 / chroma_me=1 / trellis=2 / 8x8dct=1 / cqm=0 / deadzone=21,11 / fast_pskip=0 / chroma_qp_offset=-2 / threads=10 / lookahead_threads=2 / sliced_threads=0 / nr=0 / decimate=0 / interlaced=0 / bluray_compat=0 / constrained_intra=0 / bframes=16 / b_pyramid=2 / b_adapt=2 / b_bias=0 / direct=3 / weightb=1 / open_gop=0 / weightp=2 / keyint=240 / keyint_min=23 / scenecut=40 / intra_refresh=0 / rc_lookahead=60 / rc=2pass / mbtree=0 / bitrate=830 / ratetol=1.0 / qcomp=0.65 / qpmin=0 / qpmax=69 / qpstep=4 / cplxblur=20.0 / qblur=0.5 / vbv_maxrate=50000 / vbv_bufsize=62500 / nal_hrd=none / filler=0 / ip_ratio=1.40 / pb_ratio=1.30 / aq=3:0.95 / zones=158126,167436,q=36
Default : Да
Forced : Нет

Аудио
Идентификатор : 4
Формат : AAC
Формат/Информация : Advanced Audio Codec
Профиль формата : HE-AAC / LC
Идентификатор кодека : A_AAC
Продолжительность : 1 ч. 55 м.
Битрейт : 64,0 Кбит/сек
Каналы : 2 канала
Расположение каналов : Front: L R
Частота : 48,0 КГц / 24,0 КГц
Частота кадров : 23,438 кадра/сек (1024 spf)
Метод сжатия : С потерями
Задержка видео : 31 мс.
Размер потока : 52,7 Мбайт (7%)
Заголовок : Dub
Язык : Russian
Default : Да
Forced : Нет

Текст #1
Идентификатор : 1
Формат : UTF-8
Идентификатор кодека : S_TEXT/UTF8
Идентификатор кодека/Информация : UTF-8 Plain Text
Продолжительность : 1 ч. 50 м.
Битрейт : 0 бит/сек
Count of elements : 11
Размер потока : 658 байт (0%)
Заголовок : Forced
Язык : Russian
Default : Нет
Forced : Нет

Текст #2
Идентификатор : 2
Формат : UTF-8
Идентификатор кодека : S_TEXT/UTF8
Идентификатор кодека/Информация : UTF-8 Plain Text
Продолжительность : 1 ч. 50 м.
Битрейт : 64 бит/сек
Count of elements : 969
Размер потока : 52,0 Кбайт (0%)
Язык : Russian
Default : Нет
Forced : Нет

Меню
00:00:00.000 : en:Chapter 1
00:04:36.818 : en:Chapter 2
00:09:16.639 : en:Chapter 3
00:14:39.587 : en:Chapter 4
00:21:55.689 : en:Chapter 5
00:26:34.343 : en:Chapter 6
00:34:23.895 : en:Chapter 7
00:41:06.964 : en:Chapter 8
00:48:30.825 : en:Chapter 9
00:56:45.652 : en:Chapter 10
01:05:11.074 : en:Chapter 11
01:11:21.903 : en:Chapter 12
01:19:30.724 : en:Chapter 13
01:25:00.887 : en:Chapter 14
01:31:49.838 : en:Chapter 15
01:37:32.889 : en:Chapter 16
01:44:44.737 : en:Chapter 17
01:49:07.708 : en:Chapter 18












   Похожие торренты   Торрент   Размер 
В этой теме нет новых непрочитанных сообщений. Самый пьяный округ в мире / Lawless (Джон Хиллкоут) [International Cut] [2012, драма, криминал, BDRip-AVC] DUB+AVO

10 | 0

2.8 ГБ

В этой теме нет новых непрочитанных сообщений. Самый пьяный округ в мире / Lawless (Джон Хиллкоут) [International Cut] [2012, драма, криминал, BDRip-AVC] DUB

19 | 0

1.43 ГБ

В этой теме нет новых непрочитанных сообщений. Самый пьяный округ в мире / Lawless (2012) BDRip 720p от HELLYWOOD | International Cut | Лицензия

303 | 144

7.83 ГБ

В этой теме нет новых непрочитанных сообщений. Самый пьяный округ в мире / Lawless (2012) BDRip-AVC от HELLYWOOD | Лицензия

530 | 45

2.18 ГБ

В этой теме нет новых непрочитанных сообщений. Округ беззакония / Lawless Range (Шон МакГинли) [2016, драма, вестерн, WEB-DLRip] DVO

587 | 26

1.38 ГБ

В этой теме нет новых непрочитанных сообщений. Пьяный рассвет / Tequila Sunrise (Роберт Таун) [1988, триллер, драма, мелодрама, криминал, BDRip] DUB

4 | 4

1.46 ГБ

В этой теме нет новых непрочитанных сообщений. Последний контракт Халли / Khali the Killer (Джон Мэттьюс) [2017, драма, криминал, BDRip] MVO

3 | 0

1.46 ГБ




Вы не можете начинать темы
Вы не можете отвечать на сообщения
Вы не можете редактировать свои сообщения
Вы не можете удалять свои сообщения
Вы не можете добавлять вложения

Перейти:  
 Вход
ppkBB3cker v.2 © 2008-2014 @ PPK
[ Time : 0.032s | 17 Queries | GZIP : Off ]

cron