img image001 image001 image001 image001 image001 image001 image001 image001 image001 image001 image001 image001 image001 image001 image001 image001
Planets Sun Sun Sun
Статистика раздачи
Автор: Снежана | Размер: 2.34 ГБ | Добавлен: 13 апр 2018
Раздают: 37    Качают: 0
Скачать торрент
Скачать торрент
Описание торрента

СообщениеДобавлено: 13 апр 2018 

Падмавати / Padmaavat


Перевод: Любительский (многоголосый закадровый) [группа Selena], субтитры: (русские на песни)
Формат: WEB-DL-AVC, MKV, H.264, AC3
Страна: Индия
Режиссер: Санджай Лила Бхансали
Жанр: исторический, драма, мелодрама
Продолжительность: 02:42:54
Год выпуска: 2018
В ролях: Дипика Падукон, Ранвир Сингх, Шахид Капур, Адити Рао Хидари, Джим Сарбх, Раза Мурад, Падмавати Рао

Описание: 1303 год. Могущественный султан Алауддин Кхилджи приводит свои войска к стенам крепости Читторгарха и обещает её правителю Махаравалу Сингху не разрушать город, если король отдаст ему собственную жену, красавицу Падмавати.


Видео: 1280x544 (2.35:1), 23,976 fps, AVC MPEG-4, ~ 1859 Кбит/сек, 0.111 bit/pixel
Аудио: 48 kHz, AC3 2 ch (L,R) ~192 kbps



Бюджет фильма - 30 млн долларов. Это один из самых дорогих болливудских эпиков. Но внезапно далекие потомки решили, что фильм порочит светлую память Падмавати. Ну и все, как у нас с "Матильдой", только круче. Активисты несколько раз нападали на участников съемочной группы, однажды забросали бутылками с зажигательной смесью съемочную площадку, грозились жечь кинотеатры и так далее.
В реально существующем дворце Падмини разбили зеркала, в которых по легенде Алауддин увидел облик Падмавати, потому что в начале XIV века не было зеркал. Ну, т. е., а если бы были, то интересно что, увидел бы?

Фильм при этом, разумеется, до выхода в прокат никто не видел, поэтому претензии все время менялись, но в целом недовольство вызвано тем, что фильм не является исторически точным — все было не так! — и порочит честь индийского народа.
В основе картины лежит эпическая поэма суфийского мистика Малика Джаяси «Падмавати», рассказывающая о падении города Читторгарха и династии меварских князей.

За головы режиссера и исполнительницы главной роли даже была назначена награда в несколько сотен тысяч долларов.







General
Уникальный идентификатор : 189507318348307756605644255161676517586 (0x8E91C82B2C0AD4B6900725ECF344D0D2)
Полное имя : C:\Users\Sem\Desktop\Padmaavat 720p WEB-DL.mkv
Формат : Matroska
Версия формата : Version 2
Размер файла : 2.34 GiB
Продолжительность : 2 h 42 min
Общий поток : 2 052 kb/s
Название фильма : Padmaavat - https://desitorrents.tv/
Дата кодирования : UTC 2018-04-12 17:35:12
Программа кодирования : mkvmerge v4.1.1 ('Bouncin' Back') сборка от Jul 3 2010 22:54:08
Библиотека кодирования : libebml v1.0.0 + libmatroska v1.0.0 / Lavf57.71.100
ENCODING_INFO : MATROSKA,WEBM > MKV 720p / H264 > X264 CRF-2P 21.0 Medium / AAC-LC > AC3 CBR 192kbps / MP3 > AC3 CBR 192kbps

Video
Идентификатор : 1
Формат : AVC
Формат/Информация : Advanced Video Codec
Профиль формата :
Настройки формата : CABAC / 4 Ref Frames
Параметр CABAC формата : Yes
Параметр RefFrames формата : 4 frames
Идентификатор кодека : V_MPEG4/ISO/AVC
Продолжительность : 2 h 42 min
Битрейт : 1 859 kb/s
Ширина : 1 280 pixels
Высота : 544 pixels
Соотношение сторон : 2.35:1
Режим частоты кадров : Constant
Частота кадров : 23.976 (24000/1001) FPS
Цветовое пространство : YUV
Субдискретизация насыщенности : 4:2:0
Битовая глубина : 8 bits
Тип развёртки : Progressive
Бит/(Пиксели*Кадры) : 0.111
Размер потока : 2.07 GiB (89%)
Библиотека кодирования : x264 core 155 r2901M 7d0ff22
Настройки программы : cabac=1 / ref=3 / deblock=1:-1:-1 / analyse=0x3:0x113 / me=hex / subme=7 / psy=1 / psy_rd=1.00:0.00 / mixed_ref=1 / me_range=16 / chroma_me=1 / trellis=1 / 8x8dct=1 / cqm=0 / deadzone=21,11 / fast_pskip=1 / chroma_qp_offset=-2 / threads=5 / lookahead_threads=1 / sliced_threads=0 / nr=0 / decimate=1 / interlaced=0 / bluray_compat=0 / constrained_intra=0 / bframes=3 / b_pyramid=2 / b_adapt=1 / b_bias=0 / direct=1 / weightb=1 / open_gop=0 / weightp=2 / keyint=240 / keyint_min=24 / scenecut=40 / intra_refresh=0 / rc_lookahead=40 / rc=2pass / mbtree=1 / bitrate=1859 / ratetol=1.0 / qcomp=0.60 / qpmin=0 / qpmax=69 / qpstep=4 / cplxblur=20.0 / qblur=0.5 / ip_ratio=1.40 / aq=1:1.00
Default : Yes
Forced : No

Audio
Идентификатор : 2
Формат : AC-3
Формат/Информация : Audio Coding 3
Режим смешивания : Header stripping
Идентификатор кодека : A_AC3
Продолжительность : 2 h 42 min
Вид битрейта : Constant
Битрейт : 192 kb/s
Каналы : 2 channels
Расположение каналов : Front: L R
Частота : 48.0 kHz
Частота кадров : 31.250 FPS (1536 SPF)
Битовая глубина : 16 bits
Метод сжатия : Lossy
Размер потока : 224 MiB (9%)
Язык : Russian
ServiceKind/String : Complete Main
Default : No
Forced : No

Text
Идентификатор : 3
Формат : UTF-8
Идентификатор кодека : S_TEXT/UTF8
Идентификатор кодека/Информация : UTF-8 Plain Text
Язык : Russian
Default : No
Forced : No



   Похожие торренты   Торрент   Размер 
В этой теме нет новых непрочитанных сообщений. Падмавати / Padmaavat (Санджай Лила Бхансали) [2018, Драма, мелодрама, история, WEB-DLRip] DVO

46 | 6

1.37 ГБ

В этой теме нет новых непрочитанных сообщений. Пианино / The Piano (Джейн Кэмпион) [1993, драма, мелодрама, BDRip-AVC] DVO+AVO / Фильмы HDRip

7 | 0

2.9 ГБ

В этой теме нет новых непрочитанных сообщений. Дикарь / Gauguin - Voyage de Tahiti (Эдуард Делюк) [2017, драма, мелодрама, биография, WEBDLRip-AVC] DUB / Фильмы HDRip

14 | 2

2.5 ГБ

В этой теме нет новых непрочитанных сообщений. Запретная любовь / The Edge of love (Джон Мэйбери) [2008, драма, мелодрама, военный, биография, BDRip-AVC] MVO / Фильмы HDRip

2 | 0

2.91 ГБ

В этой теме нет новых непрочитанных сообщений. Условно свободен / Tercer grado (Джеффри Каупер / Geoffrey Cowper) [2015, Боевик, триллер, драма, мелодрама, BDRip-AVC] VO / Фильмы HDRip

58 | 0

1.8 ГБ

В этой теме нет новых непрочитанных сообщений. Война и мир, 1 сезон 1-5 серии из 6 / War and Peace [NewStudio] (Том Харпер) [2016, драма, мелодрама, военный, исторический, WEB-DLRip-AVC, P]

49 | 8

4.93 ГБ

В этой теме нет новых непрочитанных сообщений. Война и мир, 1 сезон 1-4 серии из 6 / War and Peace [NewStudio] (Том Харпер) [2016, драма, мелодрама, военный, исторический, WEB-DLRip-AVC, P]

6 | 25

3.96 ГБ




Вы не можете начинать темы
Вы не можете отвечать на сообщения
Вы не можете редактировать свои сообщения
Вы не можете удалять свои сообщения
Вы не можете добавлять вложения

Перейти:  
 Вход
ppkBB3cker v.2 © 2008-2014 @ PPK
[ Time : 0.300s | 19 Queries | GZIP : Off ]

cron