img image001 image001 image001 image001 image001 image001 image001 image001 image001 image001 image001 image001 image001 image001 image001 image001

Planets Sun Sun Sun
Статистика раздачи
Автор: Снежана | Размер: 17.65 ГБ | Добавлен: 19 апр 2018
Раздают: 5    Качают: 10
Скачать торрент
Скачать торрент
Описание торрента

СообщениеДобавлено: 19 апр 2018 

Симпсоны / The Simpsons

Перевод: Профессиональный (многоголосый, закадровый) IdeaFilm
Субтитры: отсутствуют
Формат: WEBRip, MKV, h.264, AC3
Страна: США
Режиссер: Марк Керклэнд, Джефф Линч, Сьюзи Диттер, Мэтт Гроенинг,
Жанр: Комедия, мультсериал, семейный
Всего серий: 22
Продолжительность: 16х ~00:25:00
Год выпуска: 2017

В ролях: Дэн Кастелланета, Джули Кавнер, Нэнси Картрайт, Ярдли Смит, Гарри Ширер, Хэнк Азария, Памела Хейден, Тресс МакНилл, Карл Видерготт, Мэгги Росвэл

Описание: «Симпсоны» - это пародия на всех и вся, и на типичный американский уклад жизни в целом. Главные герои этого мультсериала - показательная в своей типичности семья Симпсонов - обжора и лежебока, недалекий Гомер, его жена-умница домохозяйка Мардж, их дети сорванец Барт, одаренная умная девочка Лиза и совсем еще младенец Мэгги. Каждая серия не только богата юмором, но и высмеивает одну из волнующих современного человека тем, так что сериал с успехом пережил более 25 сезонов и продолжает успешное шествие по экранам. Отрезки, шутки, сами герои Симпсонов стали неотъемлемой частью современной поп-культуры, а их имена стали именами нарицательными.


Рейтинг на:

Видео: 1920x1080 (16/9), 23,976 fps, AVC (х264), , ~6808 kbps avg, 0.137 bit/pixel
Аудио #1 Rus: :48 kHz, AC3 Dolby Digital, 3/2 (L,C,R,l,r) + LFE ch, ~384 kbps
Аудио #1 Eng: :48 kHz, AC3 Dolby Digital, 3/2 (L,C,R,l,r) + LFE ch, ~384 kbps

Внимание, присутствует реклама!


Внимание! Раздача ведётся путём добавления новых серий; при каждом добавлении создаётся новый торрент. Чтобы начать докачку новой серии, пользователям необходимо сделать следующее:
(1) остановить скачивание,
(2) удалить старый торрент у себя из клиента (старые серии удалять не надо),
(3) скачать новый торрент и запустить его у себя в клиенте вместо старого, при этом указать клиенту путь в старую папку куда и должно происходить скачивание новых серий.

Ваш клиент при этом должен произвести хеширование (проверку) старой папки (если не производит сам - помогите ему сделать это), и будет докачивать только те серии которых у вас ещё нет. Старые серии при этом не удаляются, а продолжают раздаваться!

Eсли вы уже удалили старые серии, то предотвратить повторную закачку старых серий можно, отжав галочку в соответствующих местах при запуске нового торрента. По возможности, желательно не удалять старые серии как можно дольше, чтобы релизёр не столько продолжал раздавать старые серии, а смог сконцентрироваться на новых.



Общее
Уникальный идентификатор : 220929275501618438664701502472272419796 (0xA6356E44314559C2AE2EBFD2A7FB1BD4)
Полное имя : F:\IDEAFILM\The Simpsons.S29.WEBRip.1080p\The Simpsons.S29E01.WEBRip.1080p-IDEAFILM.mkv
Формат : Matroska
Версия формата : Version 4 / Version 2
Размер файла : 1,18 Гбайт
Продолжительность : 22 м. 18 с.
Общий поток : 7567 Кбит/сек
Дата кодирования : UTC 2017-10-03 20:19:50
Программа кодирования : mkvmerge v12.0.0 ('Trust / Lust') 64bit
Библиотека кодирования : libebml v1.3.4 + libmatroska v1.4.5

Видео
Идентификатор : 1
Формат : AVC
Формат/Информация : Advanced Video Codec
Профиль формата :
Параметр CABAC формата : Да
Параметр ReFrames формата : 3 кадра
Идентификатор кодека : V_MPEG4/ISO/AVC
Продолжительность : 22 м. 18 с.
Битрейт : 6808 Кбит/сек
Ширина : 1920 пикселей
Высота : 1080 пикселей
Соотношение сторон : 16:9
Режим частоты кадров : Постоянный
Частота кадров : 23,976 (24000/1001) кадра/сек
Стандарт вещания : NTSC
Цветовое пространство : YUV
Субдискретизация насыщенности : 4:2:0
Битовая глубина : 8 бит
Тип развёртки : Прогрессивная
Бит/(Пиксели*Кадры) : 0.137
Размер потока : 1,06 Гбайт (90%)
Язык : English
Default : Да
Forced : Нет
Цветовой диапазон : Limited
Основные цвета : BT.709
Характеристики трансфера : BT.709
Коэффициенты матрицы : BT.709

Аудио #1
Идентификатор : 2
Формат : AC-3
Формат/Информация : Audio Coding 3
Расширение режима : CM (complete main)
Параметр Endianness формата : Big
Идентификатор кодека : A_AC3
Продолжительность : 22 м. 18 с.
Вид битрейта : Постоянный
Битрейт : 384 Кбит/сек
Каналы : 6 каналов
Расположение каналов : Front: L C R, Side: L R, LFE
Частота : 48,0 КГц
Частота кадров : 31,250 кадров/сек (1536 spf)
Метод сжатия : С потерями
Размер потока : 61,3 Мбайт (5%)
Заголовок : IDEAFILM
Язык : Russian
Default : Да
Forced : Нет

Аудио #2
Идентификатор : 3
Формат : AC-3
Формат/Информация : Audio Coding 3
Расширение режима : CM (complete main)
Параметр Endianness формата : Big
Идентификатор кодека : A_AC3
Продолжительность : 21 м. 38 с.
Вид битрейта : Постоянный
Битрейт : 384 Кбит/сек
Каналы : 6 каналов
Расположение каналов : Front: L C R, Side: L R, LFE
Частота : 48,0 КГц
Частота кадров : 31,250 кадров/сек (1536 spf)
Метод сжатия : С потерями
Задержка видео : 40 с. 0 мс.
Размер потока : 59,4 Мбайт (5%)
Язык : English
Default : Нет
Forced : Нет







   Похожие торренты   Торрент   Размер 
В этой теме нет новых непрочитанных сообщений. Симпсоны, 29 сезон 1-12 серия из 22 / The Simpsons [IdeaFilm] (Марк Керклэнд, Джефф Линч, Сьюзи Диттер, Мэтт Гроенинг,) [2017,Комедия, мультсериал, семейный, WEBRip 1080p, P]

5 | 3

13.18 ГБ

В этой теме нет новых непрочитанных сообщений. Симпсоны, 29 сезон 1 серия из 22 / The Simpsons [IdeaFilm] (Марк Керклэнд, Джефф Линч, Сьюзи Диттер, Мэтт Гроенинг,) [2017,Комедия, мультсериал, семейный, WEBRip 1080p, P]

5 | 4

1.18 ГБ

В этой теме нет новых непрочитанных сообщений. Симпсоны, 29 сезон 1-11 серия из 22 / The Simpsons [IdeaFilm] (Марк Керклэнд, Джефф Линч, Сьюзи Диттер, Мэтт Гроенинг,) [2017,Комедия, мультсериал, семейный, WEBRip 1080p, P]

2 | 3

12.06 ГБ

В этой теме нет новых непрочитанных сообщений. Симпсоны, 29 сезон 1-17 серия из 22 / The Simpsons [IdeaFilm] (Марк Керклэнд, Джефф Линч, Сьюзи Диттер, Мэтт Гроенинг,) [2017,Комедия, мультсериал, семейный, WEBRip 1080p, P]

6 | 4

18.75 ГБ

В этой теме нет новых непрочитанных сообщений. Симпсоны, 29 сезон 1-13 серия из 22 / The Simpsons [IdeaFilm] (Марк Керклэнд, Джефф Линч, Сьюзи Диттер, Мэтт Гроенинг,) [2017,Комедия, мультсериал, семейный, WEBRip 1080p, P]

2 | 7

14.31 ГБ

В этой теме нет новых непрочитанных сообщений. Симпсоны, 29 сезон 1-15 серия из 22 / The Simpsons [IdeaFilm] (Марк Керклэнд, Джефф Линч, Сьюзи Диттер, Мэтт Гроенинг,) [2017,Комедия, мультсериал, семейный, WEBRip 1080p, P]

2 | 6

16.49 ГБ

В этой теме нет новых непрочитанных сообщений. Симпсоны, 29 сезон 1-19 серия из 22 / The Simpsons [IdeaFilm] (Марк Керклэнд, Джефф Линч, Сьюзи Диттер, Мэтт Гроенинг,) [2017,Комедия, мультсериал, семейный, WEBRip 1080p, P]

0 | 12

21.06 ГБ




Вы не можете начинать темы
Вы не можете отвечать на сообщения
Вы не можете редактировать свои сообщения
Вы не можете удалять свои сообщения
Вы не можете добавлять вложения

Перейти:  
 Вход
ppkBB3cker v.2 © 2008-2014 @ PPK
[ Time : 0.027s | 16 Queries | GZIP : Off ]

cron