img image001 image001 image001 image001 image001 image001 image001 image001 image001 image001 image001 image001 image001 image001 image001 image001

Planets Sun Sun Sun
Статистика раздачи
Автор: Снежана | Размер: 1.56 ГБ | Добавлен: 08 май 2018
Раздают: 4    Качают: 9
Скачать торрент
Скачать торрент
Описание торрента

СообщениеДобавлено: 08 май 2018 

Арчер / Archer

Перевод: Профессиональный (многоголосый, закадровый) IdeaFilm
Субтитры: отсутствуют
Формат: WEB-DL, MKV, h.264, AC3
Страна: США
Режиссер: Адам Рид, Брайан Фордни
Жанр: Боевик, комедия, приключения, мультсериал
Всего серий: 8
Продолжительность: 2 х ~00:25:00
Год выпуска: 2017

В ролях: Джон Бенжамин, Джуди Грир, Крис Парнел, Аиша Тайлер, Джессика Уолтер, Амбер Нэш, Адам Рид, Джордж Коу, Дэйв Уиллис

Описание: В международном шпионском агенстве ISIS любой мировой кризис — лишь предлог для высококлассных секретных агентов посоревноваться между собой в обмане и предательстве. Главным героем мультсериала является спецагент Стерлинг Арчер, известный также под кодовым именем «Герцогиня». На службе Арчеру приходится мириться со своей эксцентричной мамашей/начальницей — Мэлори, бывшей подружкой Ланой, озабоченной секретаршей Шерил и другими «интересными личностями».

Рейтинг на:

Видео: 1280x720 (16/9), 23,976 fps, AVC (х264), , ~4500 kbps avg, 0.204 bit/pixel
Аудио #1: Русский:48 kHz, AC3 Dolby Digital, 3/2 (L,C,R,l,r) + LFE ch, ~384 kbps [Профессиональный (многоголосый, закадровый)] [IdeaFilm]
Аудио #2: Английский:48 kHz, AC3 Dolby Digital, 3/2 (L,C,R,l,r) + LFE ch, ~384 kbps [Original]

Внимание, присутствует реклама!


Внимание! Раздача ведётся путём добавления новых серий; при каждом добавлении создаётся новый торрент. Чтобы начать докачку новой серии, пользователям необходимо сделать следующее:
(1) остановить скачивание,
(2) удалить старый торрент у себя из клиента (старые серии удалять не надо),
(3) скачать новый торрент и запустить его у себя в клиенте вместо старого, при этом указать клиенту путь в старую папку куда и должно происходить скачивание новых серий.

Ваш клиент при этом должен произвести хеширование (проверку) старой папки (если не производит сам - помогите ему сделать это), и будет докачивать только те серии которых у вас ещё нет. Старые серии при этом не удаляются, а продолжают раздаваться!

Eсли вы уже удалили старые серии, то предотвратить повторную закачку старых серий можно, отжав галочку в соответствующих местах при запуске нового торрента. По возможности, желательно не удалять старые серии как можно дольше, чтобы релизёр не столько продолжал раздавать старые серии, а смог сконцентрироваться на новых.



Общее
Уникальный идентификатор : 205011133981065345146986093705784164380 (0x9A3BB54BB91875988CBD06CADE2B801C)
Полное имя : I:\IDEAFILM\Archer.S09.WEBRip.720p\Archer.S09E01.WEBRip.720p-IdeaFilm.mkv
Формат : Matroska
Версия формата : Version 4 / Version 2
Размер файла : 767 Мбайт
Продолжительность : 20 м. 12 с.
Общий поток : 5303 Кбит/сек
Дата кодирования : UTC 2018-04-27 12:32:03
Программа кодирования : mkvmerge v12.0.0 ('Trust / Lust') 64bit
Библиотека кодирования : libebml v1.3.4 + libmatroska v1.4.5

Видео
Идентификатор : 1
Формат : AVC
Формат/Информация : Advanced Video Codec
Профиль формата :
Настройки формата : CABAC / 4 Ref Frames
Параметр CABAC формата : Да
Параметр RefFrames формата : 4 кадра
Идентификатор кодека : V_MPEG4/ISO/AVC
Продолжительность : 20 м. 12 с.
Битрейт : 4500 Кбит/сек
Ширина : 1280 пикселей
Высота : 720 пикселей
Соотношение сторон : 16:9
Режим частоты кадров : Постоянный
Частота кадров : 23,976 (24000/1001) кадра/сек
Цветовое пространство : YUV
Субдискретизация насыщенности : 4:2:0
Битовая глубина : 8 бит
Тип развёртки : Прогрессивная
Бит/(Пиксели*Кадры) : 0.204
Размер потока : 657 Мбайт (86%)
Библиотека кодирования : x264 core 130 r2273 b3065e6
Настройки программы : cabac=1 / ref=3 / deblock=1:0:0 / analyse=0x3:0x113 / me=hex / subme=2 / psy=1 / psy_rd=1.00:0.00 / mixed_ref=1 / me_range=16 / chroma_me=1 / trellis=1 / 8x8dct=1 / cqm=0 / deadzone=21,11 / fast_pskip=1 / chroma_qp_offset=0 / threads=24 / lookahead_threads=5 / sliced_threads=0 / nr=0 / decimate=1 / interlaced=0 / bluray_compat=0 / constrained_intra=0 / bframes=2 / b_pyramid=2 / b_adapt=1 / b_bias=0 / direct=1 / weightb=1 / open_gop=0 / weightp=2 / keyint=250 / keyint_min=23 / scenecut=40 / intra_refresh=0 / rc_lookahead=40 / rc=abr / mbtree=1 / bitrate=4500 / ratetol=1.0 / qcomp=0.60 / qpmin=0 / qpmax=69 / qpstep=4 / ip_ratio=1.40 / aq=1:1.00
Default : Да
Forced : Нет

Аудио #1
Идентификатор : 2
Формат : AC-3
Формат/Информация : Audio Coding 3
Идентификатор кодека : A_AC3
Продолжительность : 20 м. 12 с.
Вид битрейта : Постоянный
Битрейт : 384 Кбит/сек
Каналы : 6 каналов
Расположение каналов : Front: L C R, Side: L R, LFE
Частота : 48,0 КГц
Частота кадров : 31,250 кадров/сек (1536 SPF)
Битовая глубина : 16 бит
Метод сжатия : С потерями
Размер потока : 55,5 Мбайт (7%)
Заголовок : IdeaFilm
Язык : Russian
ServiceKind/String : Complete Main
Default : Да
Forced : Нет

Аудио #2
Идентификатор : 3
Формат : AC-3
Формат/Информация : Audio Coding 3
Идентификатор кодека : A_AC3
Продолжительность : 19 м. 32 с.
Битрейт : 384 Кбит/сек
Каналы : 6 каналов
Частота : 48,0 КГц
Частота кадров : 31,250 кадров/сек (1536 SPF)
Метод сжатия : С потерями
Размер потока : 53,7 Мбайт (7%)
Язык : English
Default : Нет
Forced : Нет







   Похожие торренты   Торрент   Размер 
В этой теме нет новых непрочитанных сообщений. Арчер, 9 сезон 1-8 серия из 8 / Archer (Адам Рид, Брайан Фордни) [2018, Боевик, комедия, приключения, мультсериал, WEBRip 720p] MVO+ Original

0 | 0

6.15 ГБ

В этой теме нет новых непрочитанных сообщений. Арчер, 9 сезон 1-4 серия из 8 / Archer (Адам Рид, Брайан Фордни) [2018, Боевик, комедия, приключения, мультсериал, WEBRip 720p] MVO+Original

3 | 6

3.13 ГБ

В этой теме нет новых непрочитанных сообщений. Арчер, 9 сезон 1-6 серия из 8 / Archer (Адам Рид, Брайан Фордни) [2018, Боевик, комедия, приключения, мультсериал, WEBRip 720p] MVO+ Original

4 | 5

4.68 ГБ

В этой теме нет новых непрочитанных сообщений. Арчер, 9 сезон 1-3 серия из 8 / Archer (Адам Рид, Брайан Фордни) [2018, Боевик, комедия, приключения, мультсериал, WEBRip 720p] MVO+Original

4 | 5

2.34 ГБ

В этой теме нет новых непрочитанных сообщений. Арчер, 9 сезон 1-5 серия из 8 / Archer (Адам Рид, Брайан Фордни) [2018, Боевик, комедия, приключения, мультсериал, WEBRip 720p] MVO+Original

4 | 8

3.94 ГБ

В этой теме нет новых непрочитанных сообщений. Арчер, 9 сезон 1 серия из 8 / Archer (Адам Рид, Брайан Фордни) [2018, Боевик, комедия, приключения, мультсериал, WEBRip 720p] MVO+Original

7 | 5

766.75 МБ

В этой теме нет новых непрочитанных сообщений. Арчер, 9 сезон 1-4 серия из 8 / Archer (Адам Рид, Брайан Фордни) [2018, Боевик, комедия, приключения, мультсериал, WEBRip 1080p] MVO+Original

2 | 5

4.55 ГБ




Вы не можете начинать темы
Вы не можете отвечать на сообщения
Вы не можете редактировать свои сообщения
Вы не можете удалять свои сообщения
Вы не можете добавлять вложения

Перейти:  
 Вход
ppkBB3cker v.2 © 2008-2014 @ PPK
[ Time : 0.069s | 16 Queries | GZIP : Off ]

cron