img image001 image001 image001 image001 image001 image001 image001 image001 image001 image001 image001 image001 image001 image001 image001 image001

Planets Sun Sun Sun
Статистика раздачи
Автор: Снежана | Размер: 7.73 ГБ | Добавлен: 15 май 2018
Раздают: 0    Качают: 0
Скачать торрент
Скачать торрент
Описание торрента

СообщениеДобавлено: 15 май 2018 

Уоллес и Громит: Проклятие кролика-оборотня / Wallace & Gromit in The Curse of the Were-Rabbit

Перевод: Профессиональный (полное дублирование)
Субтитры: русские, английские
Формат: WEB-DL 1080p, MKV, H.264, AC3
Страна: Великобритания, США
Режиссер: Стив Бокс, Ник Парк
Жанр: мультфильм, фантастика, фэнтези, комедия, детектив, приключения, семейный
Продолжительность: 01:21:00
Год выпуска: 2005

В ролях: Питер Саллис, Рэйф Файнс, Хелена Бонем Картер, Питер Кэй, Николас Смит, Лиз Смит, Джон Томсон, Марк Гатисс, Винсент Эбрахим, Джеральдин МакЮэн

Описание: Ежегодный конкурс гигантских овощей приближается, и «овощемания» охватывает всех соседей Уоллеса и Громита. Два предприимчивых друга решили заработать денег на борьбе с грызунами, воспользовавшись своим изобретением «Анти-Песто». Но внезапно огромное таинственное животное начало терроризировать округу, уничтожая овощи, которые могли претендовать на главный приз конкурса. В отчаянье, пытаясь спасти мероприятие, его организатор леди Тоттингтон обещает царские почести тому, кто поймает зверя и спасет праздник.



Видео: 1920x1080p (16:9), 25,000 fps, MPEG4 AVC (x264), High@L4 ~11,3 Mbps avg, 0.218 bit/pixel
Аудио#1: Русский 48 kHz, AC3, 6 ch ~ 384 Kbps [Профессиональный (полное дублирование)(R5)]
Аудио#2: Русский 48 kHz, AC3, 6 ch ~ 448 Kbps [Профессиональный (многоголосый, закадровый)(Tycoon-Studio)]
Аудио#3: Русский 48 kHz, AC3, 6 ch ~ 384 Kbps [Профессиональный (многоголосый, закадровый)(Н.канал)]
Аудио#4: Украинский 48 kHz, AC3, 2 ch ~ 192 Kbps [Профессиональный (многоголосый, закадровый)(К1)]
Аудио#5: Английский 48 kHz, AC3, 6 ch ~ 640 Kbps [Оригинал]


Общее
Уникальный идентификатор : 254538286105397392066799505376611495582 (0xBF7E4A6CA5EC6D848A14F14AD2B96E9E)
Полное имя : F:\TREKER\ТЕМР\wallace_and_gromit_[tfile.me].mkv
Формат : Matroska
Версия формата : Version 2
Размер файла : 7,73 Гбайт
Продолжительность : 1 ч. 21 м.
Режим общего битрейта : Переменный
Общий поток : 13,6 Мбит/сек
Название фильма : wallace_and_gromit_[tfile.me]
Дата кодирования : UTC 2018-05-15 13:24:33
Программа кодирования : mkvmerge v4.0.0 ('The Stars were mine') сборка от Jun 6 2010 16:18:42
Библиотека кодирования : libebml v1.0.0 + libmatroska v1.0.0
Обложка : Yes
Attachments : cover.jpg

Видео
Идентификатор : 1
Формат : AVC
Формат/Информация : Advanced Video Codec
Профиль формата : High@L4
Параметр CABAC формата : Да
Параметр ReFrames формата : 4 кадра
Идентификатор кодека : V_MPEG4/ISO/AVC
Продолжительность : 1 ч. 21 м.
Вид битрейта : Переменный
Битрейт : 11,3 Мбит/сек
Максимальный битрейт : 15,0 Мбит/сек
Ширина : 1920 пикселей
Высота : 1080 пикселей
Соотношение сторон : 16:9
Режим частоты кадров : Постоянный
Частота кадров : 25,000 кадров/сек
Частота кадров в оригинале : 23,976 (24000/1001) кадра/сек
Цветовое пространство : YUV
Субдискретизация насыщенности : 4:2:0
Битовая глубина : 8 бит
Тип развёртки : Прогрессивная
Бит/(Пиксели*Кадры) : 0.218
Размер потока : 6,41 Гбайт (83%)
Заголовок : wallace_and_gromit_[tfile.me]
Язык : English
Default : Нет
Forced : Нет
Цветовой диапазон : Limited
Основные цвета : BT.709
Характеристики трансфера : BT.709
Коэффициенты матрицы : BT.709

Аудио #1
Идентификатор : 2
Формат : AC-3
Формат/Информация : Audio Coding 3
Расширение режима : CM (complete main)
Параметр Endianness формата : Big
Идентификатор кодека : A_AC3
Продолжительность : 1 ч. 21 м.
Вид битрейта : Постоянный
Битрейт : 384 Кбит/сек
Каналы : 6 каналов
Расположение каналов : Front: L C R, Side: L R, LFE
Частота : 48,0 КГц
Частота кадров : 31,250 кадров/сек (1536 spf)
Битовая глубина : 16 бит
Метод сжатия : С потерями
Размер потока : 223 Мбайт (3%)
Заголовок : Профессиональный (полное дублирование)( R5)
Язык : Russian
Default : Нет
Forced : Да

Аудио #2
Идентификатор : 3
Формат : AC-3
Формат/Информация : Audio Coding 3
Расширение режима : CM (complete main)
Параметр Endianness формата : Big
Идентификатор кодека : A_AC3
Продолжительность : 1 ч. 21 м.
Вид битрейта : Постоянный
Битрейт : 448 Кбит/сек
Каналы : 6 каналов
Расположение каналов : Front: L C R, Side: L R, LFE
Частота : 48,0 КГц
Частота кадров : 31,250 кадров/сек (1536 spf)
Битовая глубина : 16 бит
Метод сжатия : С потерями
Размер потока : 260 Мбайт (3%)
Заголовок : Профессиональный (многоголосый, закадровый)(Tycoon-Studio)
Язык : Russian
Default : Нет
Forced : Нет

Аудио #3
Идентификатор : 4
Формат : AC-3
Формат/Информация : Audio Coding 3
Расширение режима : CM (complete main)
Параметр Endianness формата : Big
Идентификатор кодека : A_AC3
Продолжительность : 1 ч. 21 м.
Вид битрейта : Постоянный
Битрейт : 384 Кбит/сек
Каналы : 6 каналов
Расположение каналов : Front: L C R, Side: L R, LFE
Частота : 48,0 КГц
Частота кадров : 31,250 кадров/сек (1536 spf)
Битовая глубина : 16 бит
Метод сжатия : С потерями
Размер потока : 223 Мбайт (3%)
Заголовок : Профессиональный (многоголосый, закадровый)(Н.канал)
Язык : Ukrainian
Default : Нет
Forced : Нет

Аудио #4
Идентификатор : 5
Формат : AC-3
Формат/Информация : Audio Coding 3
Расширение режима : CM (complete main)
Параметр Endianness формата : Big
Идентификатор кодека : A_AC3
Продолжительность : 1 ч. 21 м.
Вид битрейта : Постоянный
Битрейт : 192 Кбит/сек
Каналы : 2 канала
Расположение каналов : Front: L R
Частота : 48,0 КГц
Частота кадров : 31,250 кадров/сек (1536 spf)
Битовая глубина : 16 бит
Метод сжатия : С потерями
Размер потока : 111 Мбайт (1%)
Заголовок : Профессиональный (многоголосый, закадровый)(К1)
Язык : Ukrainian
Default : Нет
Forced : Нет

Аудио #5
Идентификатор : 6
Формат : AC-3
Формат/Информация : Audio Coding 3
Расширение режима : CM (complete main)
Параметр Endianness формата : Big
Идентификатор кодека : A_AC3
Продолжительность : 1 ч. 21 м.
Вид битрейта : Постоянный
Битрейт : 640 Кбит/сек
Каналы : 6 каналов
Расположение каналов : Front: L C R, Side: L R, LFE
Частота : 48,0 КГц
Частота кадров : 31,250 кадров/сек (1536 spf)
Битовая глубина : 16 бит
Метод сжатия : С потерями
Размер потока : 371 Мбайт (5%)
Заголовок : Оригинал
Язык : English
Default : Нет
Forced : Нет

Текст #1
Идентификатор : 7
Формат : UTF-8
Идентификатор кодека : S_TEXT/UTF8
Идентификатор кодека/Информация : UTF-8 Plain Text
Язык : Russian
Default : Нет
Forced : Нет

Текст #2
Идентификатор : 8
Формат : UTF-8
Идентификатор кодека : S_TEXT/UTF8
Идентификатор кодека/Информация : UTF-8 Plain Text
Язык : English
Default : Нет
Forced : Нет

Текст #3
Идентификатор : 9
Формат : UTF-8
Идентификатор кодека : S_TEXT/UTF8
Идентификатор кодека/Информация : UTF-8 Plain Text
Язык : English
Default : Нет
Forced : Нет

Меню
00:00:00.000 : en:Chapter 1
00:04:59.960 : en:Chapter 2
00:09:59.960 : en:Chapter 3
00:14:59.960 : en:Chapter 4
00:19:59.960 : en:Chapter 5
00:24:59.960 : en:Chapter 6
00:29:59.960 : en:Chapter 7
00:34:59.960 : en:Chapter 8
00:39:59.960 : en:Chapter 9
00:44:59.960 : en:Chapter 10
00:49:59.960 : en:Chapter 11
00:54:59.960 : en:Chapter 12
00:59:59.960 : en:Chapter 13
01:04:59.960 : en:Chapter 14
01:09:59.960 : en:Chapter 15
01:14:59.960 : en:Chapter 16
01:19:59.960 : en:Chapter 17









Релиз от:

Релиз предоставлен сайтом tfile.me!!



   Похожие торренты   Торрент   Размер 
В этой теме нет новых непрочитанных сообщений. Wallace & Gromit's Grand Adventures (2010) PC | RePack от R.G. Механики

306 | 18

744.41 МБ

В этой теме нет новых непрочитанных сообщений. Wallace & Gromit's Grand Adventures (2009) PC | RePack от Brick

269 | 14

759.95 МБ

В этой теме нет новых непрочитанных сообщений. Wallace & Gromit's Grand Adventures (2010) PC | RePack от R.G. Механики

66 | 5

746.4 МБ

В этой теме нет новых непрочитанных сообщений. Проклятие / The Curse (1987) BDRemux 1080p | P2, A

10 | 2

17.34 ГБ

В этой теме нет новых непрочитанных сообщений. Приключения американского кролика / The Adventures of the American Rabbit (1986) HDTVRip от Generalfilm

28 | 5

1.37 ГБ

В этой теме нет новых непрочитанных сообщений. Приключения американского кролика / The Adventures of the American Rabbit (1986) HDTVRip AVC от Generalfilm

8 | 6

1.37 ГБ

В этой теме нет новых непрочитанных сообщений. Кто подставил кролика Роджера / Who Framed Roger Rabbit (1988) HDRip от Scarabey | D

547 | 33

1.45 ГБ




Вы не можете начинать темы
Вы не можете отвечать на сообщения
Вы не можете редактировать свои сообщения
Вы не можете удалять свои сообщения
Вы не можете добавлять вложения

Перейти:  
 Вход
ppkBB3cker v.2 © 2008-2014 @ PPK
[ Time : 0.633s | 15 Queries | GZIP : Off ]

cron