img image001 image001 image001 image001 image001 image001 image001 image001 image001 image001 image001 image001 image001 image001 image001 image001

Planets Sun Sun Sun
Статистика раздачи
Автор: Снежана | Размер: 15.01 ГБ | Добавлен: 22 май 2018
Раздают: 0    Качают: 12
Скачать торрент
Скачать торрент
Описание торрента

СообщениеДобавлено: 22 май 2018 

Симпсоны (29 сезон, 1-20 серии из 22) / The Simpsons

Перевод: Профессиональный (многоголосый, закадровый)
Субтитры: английские
Формат: WEB-DL, MKV, H.264, AC3
Страна: США
Режиссер: Марк Керклэнд, Стивен Дин Мур, Джим Рирдон
Жанр: мультфильм, комедия, семейный
Продолжительность: 20х~00:21:00
Год выпуска: 2017-2018

В ролях: Дэн Кастелланета,Джули Кавнер,Нэнси Картрайт,Ярдли Смит,Гарри Ширер,Хэнк Азария,Памела Хейден,Тресс МакНилл,Карл Видерготт,Мэгги Росвэлл.

Описание: Мультфильм — пародия на американский уклад жизни. Cемейство Симпсонов состоит из пяти членов: папаша Гомер, мать семейства Мардж, их дочери Лиза и Мэгги и несносный подросток Барт.



Видео: 1280x720p (16:9), 23,976 fps, MPEG4 AVC High@L4 ~4500 kbps avg, 0.204 bit/pixel
Аудио#1: Русский 48 kHz, AC3, 2 ch ~ 192 Kbps [Профессиональный (многоголосый, закадровый)(VO-production)]
Аудио#2: Английский 48 kHz, AC3, 6 ch ~ 384 Kbps [Оригинал]

Релиз от:

Релиз предоставлен сайтом tfile.me!!


Общее
Уникальный идентификатор : 205898044250961296078628239199213506396 (0x9AE685592304902AAF35AC6A7990CF5C)
Полное имя : F:\TREKER\ТЕМР\simpsons_S29_[tfile.ru]\simpsons_[tfile.ru]_S29_E01.mkv
Формат : Matroska
Версия формата : Version 2
Размер файла : 802 Мбайт
Продолжительность : 21 м. 38 с.
Общий поток : 5184 Кбит/сек
Название фильма : simpsons_[tfile.ru]_S29_E01
Дата кодирования : UTC 2017-10-15 06:32:55
Программа кодирования : mkvmerge v4.0.0 ('The Stars were mine') сборка от Jun 6 2010 16:18:42
Библиотека кодирования : libebml v1.0.0 + libmatroska v1.0.0
Обложка : Yes
Attachments : cover.jpg

Видео
Идентификатор : 1
Формат : AVC
Формат/Информация : Advanced Video Codec
Профиль формата :
Параметр CABAC формата : Да
Параметр ReFrames формата : 6 кадров
Идентификатор кодека : V_MPEG4/ISO/AVC
Продолжительность : 21 м. 38 с.
Битрейт : 4500 Кбит/сек
Ширина : 1280 пикселей
Высота : 720 пикселей
Соотношение сторон : 16:9
Режим частоты кадров : Постоянный
Частота кадров : 23,976 (24000/1001) кадра/сек
Цветовое пространство : YUV
Субдискретизация насыщенности : 4:2:0
Битовая глубина : 8 бит
Тип развёртки : Прогрессивная
Бит/(Пиксели*Кадры) : 0.204
Размер потока : 697 Мбайт (87%)
Заголовок : simpsons_[tfile.ru]_S29_E01
Библиотека кодирования : x264 core 146 r2538 121396c
Настройки программы : cabac=1 / ref=6 / deblock=1:-1:-1 / analyse=0x3:0x133 / me=umh / subme=10 / psy=1 / psy_rd=1.00:0.15 / mixed_ref=1 / me_range=24 / chroma_me=1 / trellis=2 / 8x8dct=1 / cqm=0 / deadzone=21,11 / fast_pskip=0 / chroma_qp_offset=-3 / threads=12 / lookahead_threads=1 / sliced_threads=0 / nr=0 / decimate=1 / interlaced=0 / bluray_compat=0 / constrained_intra=0 / bframes=3 / b_pyramid=2 / b_adapt=2 / b_bias=0 / direct=1 / weightb=1 / open_gop=0 / weightp=2 / keyint=250 / keyint_min=23 / scenecut=40 / intra_refresh=0 / rc_lookahead=50 / rc=abr / mbtree=1 / bitrate=4500 / ratetol=1.0 / qcomp=0.69 / qpmin=0 / qpmax=69 / qpstep=4 / ip_ratio=1.40 / aq=1:1.00
Язык : English
Default : Нет
Forced : Нет

Аудио #1
Идентификатор : 2
Формат : AC-3
Формат/Информация : Audio Coding 3
Расширение режима : CM (complete main)
Параметр Endianness формата : Big
Идентификатор кодека : A_AC3
Продолжительность : 21 м. 38 с.
Вид битрейта : Постоянный
Битрейт : 192 Кбит/сек
Каналы : 2 канала
Расположение каналов : Front: L R
Частота : 48,0 КГц
Частота кадров : 31,250 кадров/сек (1536 spf)
Битовая глубина : 16 бит
Метод сжатия : С потерями
Размер потока : 29,7 Мбайт (4%)
Заголовок : Профессиональный (многоголосый, закадровый)(VO-production)
Язык : Russian
Default : Нет
Forced : Да

Аудио #2
Идентификатор : 3
Формат : AC-3
Формат/Информация : Audio Coding 3
Расширение режима : CM (complete main)
Параметр Endianness формата : Big
Идентификатор кодека : A_AC3
Продолжительность : 21 м. 38 с.
Вид битрейта : Постоянный
Битрейт : 384 Кбит/сек
Каналы : 6 каналов
Расположение каналов : Front: L C R, Side: L R, LFE
Частота : 48,0 КГц
Частота кадров : 31,250 кадров/сек (1536 spf)
Битовая глубина : 16 бит
Метод сжатия : С потерями
Размер потока : 59,4 Мбайт (7%)
Заголовок : Оригинал
Язык : English
Default : Нет
Forced : Нет

Текст
Идентификатор : 4
Формат : UTF-8
Идентификатор кодека : S_TEXT/UTF8
Идентификатор кодека/Информация : UTF-8 Plain Text
Язык : English
Default : Нет
Forced : Нет







Внимание! Раздача ведётся путём добавления новых серий; при каждом добавлении создётся новый торрент. Чтобы начать докачку новой серии, пользователям необходимо сделать следующее:
(1) остановить скачивание,
(2) удалить старый торрент у себя из клиента (старые серии удалять не надо),
(3) скачать новый торрент и запустить его у себя в клиенте вместо старого, при этом указать клиенту путь в старую папку куда и должно происходить скачивание новых серий.

Ваш клиент при этом должен произвести хеширование (проверку) старой папки (если не производит сам - помогите ему сделать это), и будет докачивать только те серии которых у вас ещё нет. Старые серии при этом не удаляются, а продолжают раздаваться!

Eсли вы уже удалили старые серии, то предотвратить повторную закачку старых серий можно, отжав галочку в соответсвующих местах при запуске нового торрента. По возможности, желательно не удалять старые серии как можно дольше чтобы релизёр не столько продолжал раздавать старые серии, а смог сконцентрироваться на новых.




   Похожие торренты   Торрент   Размер 
В этой теме нет новых непрочитанных сообщений. Симпсоны (29 сезон, 1-16 серии из 22) / The Simpsons (Марк Керклэнд, Стивен Дин Мур, Джим Рирдон) [2017-2018, мультфильм, комедия, семейный, WEB-DL 720p] MVO

0 | 9

12.03 ГБ

В этой теме нет новых непрочитанных сообщений. Симпсоны (29 сезон, 1-15 серии из 22) / The Simpsons (Марк Керклэнд, Стивен Дин Мур, Джим Рирдон) [2017-2018, мультфильм, комедия, семейный, WEB-DL 720p] MVO

11 | 7

11.23 ГБ

В этой теме нет новых непрочитанных сообщений. Симпсоны (29 сезон, 1-13 серии из 22) / The Simpsons (Марк Керклэнд, Стивен Дин Мур, Джим Рирдон) [2017-2018, мультфильм, комедия, семейный, WEB-DL 720p] MVO

2 | 10

9.73 ГБ

В этой теме нет новых непрочитанных сообщений. Симпсоны (29 сезон, 1-17 серии из 22) / The Simpsons (Марк Керклэнд, Стивен Дин Мур, Джим Рирдон) [2017-2018, мультфильм, комедия, семейный, WEB-DL 720p] MVO

6 | 4

12.75 ГБ

В этой теме нет новых непрочитанных сообщений. Симпсоны (29 сезон, 1-18 серии из 22) / The Simpsons (Марк Керклэнд, Стивен Дин Мур, Джим Рирдон) [2017-2018, мультфильм, комедия, семейный, WEB-DL 720p] MVO

5 | 0

13.51 ГБ

В этой теме нет новых непрочитанных сообщений. Симпсоны (29 сезон, 1-21 серии из 22) / The Simpsons (Марк Керклэнд, Стивен Дин Мур, Джим Рирдон) [2017-2018, мультфильм, комедия, семейный, WEB-DL 720p] MVO

7 | 8

15.76 ГБ

В этой теме нет новых непрочитанных сообщений. Симпсоны (29 сезон, 1-11 серии из 22) / The Simpsons (Марк Керклэнд, Стивен Дин Мур, Джим Рирдон) [2017, мультфильм, комедия, семейный, WEB-DL 720p] MVO

7 | 7

8.22 ГБ




Вы не можете начинать темы
Вы не можете отвечать на сообщения
Вы не можете редактировать свои сообщения
Вы не можете удалять свои сообщения
Вы не можете добавлять вложения

Перейти:  
 Вход
ppkBB3cker v.2 © 2008-2014 @ PPK
[ Time : 0.021s | 17 Queries | GZIP : Off ]

cron