img image001 image001 image001 image001 image001 image001 image001 image001 image001 image001 image001 image001 image001 image001 image001 image001

Planets Sun Sun Sun
Статистика раздачи
Автор: Снежана | Размер: 15.67 ГБ | Добавлен: 25 май 2018
Раздают: 7    Качают: 8
Скачать торрент
Скачать торрент
Описание торрента

СообщениеДобавлено: 25 май 2018 

Симпсоны / The Simpsons

Перевод: Профессиональный (многоголосый, закадровый) IdeaFilm
Субтитры: отсутствуют
Формат: WEBRip, MKV, h.264, AC3
Страна: США
Режиссер: Марк Керклэнд, Джефф Линч, Сьюзи Диттер, Мэтт Гроенинг,
Жанр: Комедия, мультсериал, семейный
Всего серий: 21
Продолжительность: 21х ~00:25:00
Год выпуска: 2017

В ролях: Дэн Кастелланета, Джули Кавнер, Нэнси Картрайт, Ярдли Смит, Гарри Ширер, Хэнк Азария, Памела Хейден, Тресс МакНилл, Карл Видерготт, Мэгги Росвэл

Описание: «Симпсоны» - это пародия на всех и вся, и на типичный американский уклад жизни в целом. Главные герои этого мультсериала - показательная в своей типичности семья Симпсонов - обжора и лежебока, недалекий Гомер, его жена-умница домохозяйка Мардж, их дети сорванец Барт, одаренная умная девочка Лиза и совсем еще младенец Мэгги. Каждая серия не только богата юмором, но и высмеивает одну из волнующих современного человека тем, так что сериал с успехом пережил более 25 сезонов и продолжает успешное шествие по экранам. Отрезки, шутки, сами герои Симпсонов стали неотъемлемой частью современной поп-культуры, а их имена стали именами нарицательными.


Рейтинг на:

Видео: 1280x720 (16/9), 23,976 fps, AVC (х264), , ~4500 kbps avg, 0.204 bit/pixel
Аудио #1 Rus: :48 kHz, AC3 Dolby Digital, 3/2 (L,C,R,l,r) + LFE ch, ~384 kbps
Аудио #1 Eng: :48 kHz, AC3 Dolby Digital, 3/2 (L,C,R,l,r) + LFE ch, ~384 kbps

Внимание, присутствует реклама!


Общее
Уникальный идентификатор : 236278201395374762628485618314352178812 (0xB1C186BD6351BC05A0A040A36AF2B67C)
Полное имя : F:\IDEAFILM\The Simpsons.S29.WEBRip.720p\The Simpsons.S29E01.WEBRip.720p-IDEAFILM.mkv
Формат : Matroska
Версия формата : Version 4 / Version 2
Размер файла : 850 Мбайт
Продолжительность : 22 м. 18 с.
Общий поток : 5329 Кбит/сек
Дата кодирования : UTC 2017-10-03 20:23:15
Программа кодирования : mkvmerge v12.0.0 ('Trust / Lust') 64bit
Библиотека кодирования : libebml v1.3.4 + libmatroska v1.4.5

Видео
Идентификатор : 1
Формат : AVC
Формат/Информация : Advanced Video Codec
Профиль формата :
Параметр CABAC формата : Да
Параметр ReFrames формата : 4 кадра
Идентификатор кодека : V_MPEG4/ISO/AVC
Продолжительность : 22 м. 18 с.
Битрейт : 4500 Кбит/сек
Ширина : 1280 пикселей
Высота : 720 пикселей
Соотношение сторон : 16:9
Режим частоты кадров : Постоянный
Частота кадров : 23,976 (24000/1001) кадра/сек
Цветовое пространство : YUV
Субдискретизация насыщенности : 4:2:0
Битовая глубина : 8 бит
Тип развёртки : Прогрессивная
Бит/(Пиксели*Кадры) : 0.204
Размер потока : 729 Мбайт (86%)
Библиотека кодирования : x264 core 130 r2273 b3065e6
Настройки программы : cabac=1 / ref=3 / deblock=1:0:0 / analyse=0x3:0x113 / me=hex / subme=7 / psy=1 / psy_rd=1.00:0.00 / mixed_ref=1 / me_range=16 / chroma_me=1 / trellis=1 / 8x8dct=1 / cqm=0 / deadzone=21,11 / fast_pskip=1 / chroma_qp_offset=-2 / threads=12 / lookahead_threads=2 / sliced_threads=0 / nr=0 / decimate=1 / interlaced=0 / bluray_compat=0 / constrained_intra=0 / bframes=3 / b_pyramid=2 / b_adapt=1 / b_bias=0 / direct=1 / weightb=1 / open_gop=0 / weightp=2 / keyint=250 / keyint_min=23 / scenecut=40 / intra_refresh=0 / rc_lookahead=40 / rc=abr / mbtree=1 / bitrate=4500 / ratetol=1.0 / qcomp=0.60 / qpmin=0 / qpmax=69 / qpstep=4 / ip_ratio=1.40 / aq=1:1.00
Default : Да
Forced : Нет

Аудио #1
Идентификатор : 2
Формат : AC-3
Формат/Информация : Audio Coding 3
Расширение режима : CM (complete main)
Параметр Endianness формата : Big
Идентификатор кодека : A_AC3
Продолжительность : 22 м. 18 с.
Вид битрейта : Постоянный
Битрейт : 384 Кбит/сек
Каналы : 6 каналов
Расположение каналов : Front: L C R, Side: L R, LFE
Частота : 48,0 КГц
Частота кадров : 31,250 кадров/сек (1536 spf)
Метод сжатия : С потерями
Размер потока : 61,3 Мбайт (7%)
Заголовок : IDEAFILM
Язык : Russian
Default : Да
Forced : Нет

Аудио #2
Идентификатор : 3
Формат : AC-3
Формат/Информация : Audio Coding 3
Расширение режима : CM (complete main)
Параметр Endianness формата : Big
Идентификатор кодека : A_AC3
Продолжительность : 21 м. 38 с.
Вид битрейта : Постоянный
Битрейт : 384 Кбит/сек
Каналы : 6 каналов
Расположение каналов : Front: L C R, Side: L R, LFE
Частота : 48,0 КГц
Частота кадров : 31,250 кадров/сек (1536 spf)
Метод сжатия : С потерями
Задержка видео : 40 с. 0 мс.
Размер потока : 59,4 Мбайт (7%)
Язык : English
Default : Нет
Forced : Нет







   Похожие торренты   Торрент   Размер 
В этой теме нет новых непрочитанных сообщений. Симпсоны, 29 сезон 1-21 серия из 21 / The Simpsons [IdeaFilm] (Марк Керклэнд, Джефф Линч, Сьюзи Диттер, Мэтт Гроенинг,) [2017,Комедия, мультсериал, семейный, WEBRip 1080p, P] / Мультфильмы (HD/BD Video)

7 | 8

23.35 ГБ

В этой теме нет новых непрочитанных сообщений. Симпсоны, 29 сезон 1-17 серия из 22 / The Simpsons [IdeaFilm] (Марк Керклэнд, Джефф Линч, Сьюзи Диттер, Мэтт Гроенинг,) [2017,Комедия, мультсериал, семейный, WEBRip 720p, P]

4 | 7

12.47 ГБ

В этой теме нет новых непрочитанных сообщений. Симпсоны, 29 сезон 1-16 серия из 22 / The Simpsons [IdeaFilm] (Марк Керклэнд, Джефф Линч, Сьюзи Диттер, Мэтт Гроенинг,) [2017,Комедия, мультсериал, семейный, WEBRip 720p, P]

6 | 9

11.69 ГБ

В этой теме нет новых непрочитанных сообщений. Симпсоны, 29 сезон 1-19 серия из 22 / The Simpsons [IdeaFilm] (Марк Керклэнд, Джефф Линч, Сьюзи Диттер, Мэтт Гроенинг,) [2017,Комедия, мультсериал, семейный, WEBRip 720p, P]

2 | 5

14.07 ГБ

В этой теме нет новых непрочитанных сообщений. Симпсоны, 29 сезон 1-15 серия из 22 / The Simpsons [IdeaFilm] (Марк Керклэнд, Джефф Линч, Сьюзи Диттер, Мэтт Гроенинг,) [2017,Комедия, мультсериал, семейный, WEBRip 720p, P]

5 | 12

10.92 ГБ

В этой теме нет новых непрочитанных сообщений. Симпсоны, 29 сезон 1-11 серия из 22 / The Simpsons [IdeaFilm] (Марк Керклэнд, Джефф Линч, Сьюзи Диттер, Мэтт Гроенинг,) [2017,Комедия, мультсериал, семейный, WEBRip 720p, P]

6 | 0

7.98 ГБ

В этой теме нет новых непрочитанных сообщений. Симпсоны, 29 сезон 1-12 серия из 22 / The Simpsons [IdeaFilm] (Марк Керклэнд, Джефф Линч, Сьюзи Диттер, Мэтт Гроенинг,) [2017,Комедия, мультсериал, семейный, WEBRip 720p, P]

2 | 0

8.72 ГБ




Вы не можете начинать темы
Вы не можете отвечать на сообщения
Вы не можете редактировать свои сообщения
Вы не можете удалять свои сообщения
Вы не можете добавлять вложения

Перейти:  
 Вход
ppkBB3cker v.2 © 2008-2014 @ PPK
[ Time : 0.026s | 18 Queries | GZIP : Off ]

cron