img image001 image001 image001 image001 image001 image001 image001 image001 image001 image001 image001 image001 image001 image001 image001 image001

Planets Sun Sun Sun
Статистика раздачи
Автор: Снежана | Размер: 11.18 ГБ | Добавлен: 03 июн 2018
Раздают: 7    Качают: 7
Скачать торрент
Скачать торрент
Описание торрента

СообщениеДобавлено: 03 июн 2018 

Охотники на троллей / Trollhunters

Перевод: Профессиональный (многоголосый, закадровый) IdeaFilm
Субтитры: отсутствуют
Формат: WEBRip, MKV, h.264, AC3
Страна: США
Режиссер: Родриго Блаас, Грег Тирнан
Жанр: Мультсериал, приключения, фэнтези, комедия
Всего серий: 13
Продолжительность: 13х ~00:25:00
Год выпуска: 2018

Описание: Джим Лэйк младший - самый обыкновенный подросток. Школа, друзья, первая любовь, хулиганы... И многим покажется, что его размеренная жизнь предел мечтаний, но наш герой совсем не таков. Он хочет чего-то большего, чем жизнь старшеклассника. Чтож... Желания имеют свойство сбываться. Гильермо дель Торо приглашает вас в увлекательное путешествие по миру троллей. Впереди нас ждут захватывающие приключения и потрясающая история о взрослении, мужестве и настоящем подвиге. Устраивайтесь по-удобнее и вперед навстречу чудесам вместе с Охотниками на троллей.

Рейтинг на:

Видео: 1280x720 (16/9), 23,976 fps, AVC (х264), , ~4500 kbps avg, 0.204 bit/pixel
Аудио #1 Rus: :48 kHz, AC3 Dolby Digital, 3/2 (L,C,R,l,r) + LFE ch, ~384 kbps
Аудио #1 Eng: :48 kHz, AC3 Dolby Digital, 3/2 (L,C,R,l,r) + LFE ch, ~384 kbps

Внимание, присутствует реклама!


Общее
Уникальный идентификатор : 222420667775380214560873079584889134759 (0xA754A995236C781AA0E650620E765EA7)
Полное имя : H:\IdeaFilm\Trollhunters.S03.WEBRip.720p\Trollhunters.S03E01.WEBRip.720p-IdeaFilm.mkv
Формат : Matroska
Версия формата : Version 4 / Version 2
Размер файла : 878 Мбайт
Продолжительность : 24 м. 16 с.
Общий поток : 5055 Кбит/сек
Дата кодирования : UTC 2018-05-29 19:08:57
Программа кодирования : mkvmerge v12.0.0 ('Trust / Lust') 64bit
Библиотека кодирования : libebml v1.3.4 + libmatroska v1.4.5

Видео
Идентификатор : 1
Формат : AVC
Формат/Информация : Advanced Video Codec
Профиль формата :
Настройки формата : CABAC / 4 Ref Frames
Параметр CABAC формата : Да
Параметр RefFrames формата : 4 кадра
Идентификатор кодека : V_MPEG4/ISO/AVC
Продолжительность : 24 м. 16 с.
Битрейт : 4500 Кбит/сек
Ширина : 1280 пикселей
Высота : 720 пикселей
Соотношение сторон : 16:9
Режим частоты кадров : Постоянный
Частота кадров : 23,976 (24000/1001) кадра/сек
Цветовое пространство : YUV
Субдискретизация насыщенности : 4:2:0
Битовая глубина : 8 бит
Тип развёртки : Прогрессивная
Бит/(Пиксели*Кадры) : 0.204
Размер потока : 746 Мбайт (85%)
Библиотека кодирования : x264 core 130 r2273 b3065e6
Настройки программы : cabac=1 / ref=3 / deblock=1:0:0 / analyse=0x3:0x113 / me=hex / subme=2 / psy=1 / psy_rd=1.00:0.00 / mixed_ref=1 / me_range=16 / chroma_me=1 / trellis=1 / 8x8dct=1 / cqm=0 / deadzone=21,11 / fast_pskip=1 / chroma_qp_offset=0 / threads=24 / lookahead_threads=5 / sliced_threads=0 / nr=0 / decimate=1 / interlaced=0 / bluray_compat=0 / constrained_intra=0 / bframes=2 / b_pyramid=2 / b_adapt=1 / b_bias=0 / direct=1 / weightb=1 / open_gop=0 / weightp=2 / keyint=250 / keyint_min=23 / scenecut=40 / intra_refresh=0 / rc_lookahead=40 / rc=abr / mbtree=1 / bitrate=4500 / ratetol=1.0 / qcomp=0.60 / qpmin=0 / qpmax=69 / qpstep=4 / ip_ratio=1.40 / aq=1:1.00
Default : Да
Forced : Нет

Аудио #1
Идентификатор : 2
Формат : AC-3
Формат/Информация : Audio Coding 3
Идентификатор кодека : A_AC3
Продолжительность : 24 м. 16 с.
Вид битрейта : Постоянный
Битрейт : 384 Кбит/сек
Каналы : 6 каналов
Расположение каналов : Front: L C R, Side: L R, LFE
Частота : 48,0 КГц
Частота кадров : 31,250 кадров/сек (1536 SPF)
Битовая глубина : 16 бит
Метод сжатия : С потерями
Размер потока : 66,7 Мбайт (8%)
Заголовок : IdeaFilm
Язык : Russian
ServiceKind/String : Complete Main
Default : Да
Forced : Нет

Аудио #2
Идентификатор : 3
Формат : AC-3
Формат/Информация : Audio Coding 3
Идентификатор кодека : A_AC3
Продолжительность : 23 м. 36 с.
Битрейт : 384 Кбит/сек
Каналы : 6 каналов
Частота : 48,0 КГц
Частота кадров : 31,250 кадров/сек (1536 SPF)
Метод сжатия : С потерями
Размер потока : 64,8 Мбайт (7%)
Язык : English
Default : Нет
Forced : Нет







   Похожие торренты   Торрент   Размер 
В этой теме нет новых непрочитанных сообщений. Охотники на троллей, 3 сезон 1-13 серия из 13 / Trollhunters (Родриго Блаас, Грег Тирнан) [2018, Мультсериал, приключения, фэнтези, комедия, WEBRip] MVO

33 | 18

4.17 ГБ

В этой теме нет новых непрочитанных сообщений. Охотники на троллей, 3 сезон 1-8 серия из 13 / Trollhunters [IdeaFilm] (Родриго Блаас, Грег Тирнан) [2018, Мультсериал, приключения, фэнтези, комедия, WEBRip 720p, MVO]

4 | 8

6.9 ГБ

В этой теме нет новых непрочитанных сообщений. Охотники на троллей, 3 сезон 1-8 серия из 13 / Trollhunters [IdeaFilm] (Родриго Блаас, Грег Тирнан) [2018, Мультсериал, приключения, фэнтези, комедия, WEBRip, MVO]

8 | 9

2.56 ГБ

В этой теме нет новых непрочитанных сообщений. Охотники на троллей, 3 сезон 1-13 серия из 13 / Trollhunters (Родриго Блаас, Грег Тирнан) [2018, Мультсериал, приключения, фэнтези, комедия, WEBRip 1080p] MVO

3 | 5

16.6 ГБ

В этой теме нет новых непрочитанных сообщений. Охотники на троллей, 3 сезон 1-8 серия из 13 / Trollhunters [IdeaFilm] (Родриго Блаас, Грег Тирнан) [2018, Мультсериал, приключения, фэнтези, комедия, WEBRip 1080p, MVO]

4 | 0

10.2 ГБ

В этой теме нет новых непрочитанных сообщений. Арчер, 9 сезон 1-6 серия из 8 / Archer (Адам Рид, Брайан Фордни) [2018, Боевик, комедия, приключения, мультсериал, WEBRip 720p] MVO+ Original

4 | 5

4.68 ГБ

В этой теме нет новых непрочитанных сообщений. Арчер, 9 сезон 1-5 серия из 8 / Archer (Адам Рид, Брайан Фордни) [2018, Боевик, комедия, приключения, мультсериал, WEBRip 720p] MVO+Original

4 | 8

3.94 ГБ




Вы не можете начинать темы
Вы не можете отвечать на сообщения
Вы не можете редактировать свои сообщения
Вы не можете удалять свои сообщения
Вы не можете добавлять вложения

Перейти:  
 Вход
ppkBB3cker v.2 © 2008-2014 @ PPK
[ Time : 0.040s | 16 Queries | GZIP : Off ]

cron