img image001 image001 image001 image001 image001 image001 image001 image001 image001 image001 image001 image001 image001 image001 image001 image001

Planets Sun Sun Sun
Статистика раздачи
Автор: Снежана | Размер: 5.71 ГБ | Добавлен: 12 июн 2018
Раздают: 6    Качают: 6
Скачать торрент
Скачать торрент
Описание торрента

СообщениеДобавлено: 12 июн 2018 

Босс-молокосос / The Boss Baby

Перевод: Профессиональный (полное дублирование)
Субтитры: Русские, украинские, английские
Формат: BDRip, MKV, H.264, AC3/DTS
Страна: США
Режиссер: Том МакГрат
Жанр: мультфильм, комедия, семейный
Продолжительность: 01:37:30
Год выпуска: 2017

В ролях: Алек Болдуин, Стив Бушеми, Джимми Киммел, Лиза Кудроу, Тоби Магуайр, Майлз Кристофер Бакши, Конрад Вернон, ВивиЭнн Йи, Эрик Белл мл.

Описание: Эта актуальная во все времена история для взрослых и детей рассказывается от лица семилетнего брата новорожденного — фантазера Тима, который ревнует его к родителям. Но главный герой — совсем не простой ребенок, он обладает лидерскими задатками, уже носит деловые костюмы и во всем видит бизнес-задачу.
Однажды Тим узнает о готовящемся заговоре, целью которого является уничтожение любви, и организовал его директор компании «Puppy Co». Но одному Тиму не по силам его остановить. Мальчику предстоит объединиться со своим «нелюбимым» братом, чтобы спасти родителей и вернуть порядок на Земле.




Видео: 1280x544 (2.35:1), 23.976 fps, AVC MPEG-4 (H.264), ~5490 kbps, 0.329 bit/pixel
Аудио #1: Русский: 48 kHz, DTS, 6 ch, ~768 kbps [Профессиональный (полное дублирование)]
Аудио #2: Украинский: 48 kHz, AC3 Dolby Digital, 6 ch, ~448 kbps [Профессиональный (полное дублирование)]
Аудио #3: Английский: 48 kHz, DTS, 6 ch, ~1509 kbps [Оригинал]

Формат : Matroska
Версия формата : Version 2
Размер файла : 5,71 Гбайт
Продолжительность : 1 ч. 37 м.
Общий поток : 8382 Кбит/сек
Название фильма : The Boss Baby (2017) - Release for HDCLUB
Дата кодирования : UTC 2017-07-27 21:06:18
Программа кодирования : mkvmerge v3.4.0 ('Rapunzel') built on May 15 2010 09:38:20
Библиотека кодирования : libebml v0.8.0 + libmatroska v0.9.0
Обложка : Yes
Attachments : xlog.txt / cover.jpg
Видео
Идентификатор : 1
Формат : AVC
Формат/Информация : Advanced Video Codec
Профиль формата :
Параметр CABAC формата : Да
Параметр ReFrames формата : 12 кадров
Идентификатор кодека : V_MPEG4/ISO/AVC
Продолжительность : 1 ч. 37 м.
Битрейт : 5490 Кбит/сек
Ширина : 1280 пикселей
Высота : 544 пикселя
Соотношение сторон : 2,35:1
Режим частоты кадров : Постоянный
Частота кадров : 23,976 (24000/1001) кадра/сек
Частота кадров в оригинале : 23,976 (23976/1000) кадра/сек
Цветовое пространство : YUV
Субдискретизация насыщенности : 4:2:0
Битовая глубина : 8 бит
Тип развёртки : Прогрессивная
Бит/(Пиксели*Кадры) : 0.329
Размер потока : 3,74 Гбайт (65%)
Заголовок : The Boss Baby (2017) - Release for HDCLUB
Библиотека кодирования : x264 core 142 r2431+42 c69a006 tMod [8-bit@4:2:0 X86_64]
Настройки программы : cabac=1 / ref=12 / deblock=1:-3:-3 / analyse=0x3:0x133 / me=umh / subme=10 / psy=1 / fade_compensate=0.00 / psy_rd=1.00:0.00 / mixed_ref=1 / me_range=32 / chroma_me=1 / trellis=2 / 8x8dct=1 / cqm=0 / deadzone=21,11 / fast_pskip=0 / chroma_qp_offset=-2 / threads=12 / lookahead_threads=2 / sliced_threads=0 / nr=0 / decimate=0 / interlaced=0 / bluray_compat=0 / constrained_intra=0 / fgo=0 / bframes=8 / b_pyramid=2 / b_adapt=2 / b_bias=0 / direct=3 / weightb=1 / open_gop=0 / weightp=2 / keyint=250 / keyint_min=23 / scenecut=40 / intra_refresh=0 / rc_lookahead=60 / rc=crf / mbtree=0 / crf=14.5000 / qcomp=0.65 / qpmin=0:0:0 / qpmax=69:69:69 / qpstep=4 / vbv_maxrate=50000 / vbv_bufsize=62500 / crf_max=0.0 / nal_hrd=none / filler=0 / ip_ratio=1.35 / pb_ratio=1.25 / aq=3:0.90 / aq-sensitivity=10.00 / aq-factor=1.00:1.00:1.00 / aq2=0 / aq3=0
Язык : English
Default : Да
Forced : Нет
Аудио #1
Идентификатор : 2
Формат : DTS
Формат/Информация : Digital Theater Systems
Режим : 16
Параметр Endianness формата : Big
Идентификатор кодека : A_DTS
Продолжительность : 1 ч. 37 м.
Вид битрейта : Постоянный
Битрейт : 768 Кбит/сек
Каналы : 6 каналов
Расположение каналов : Front: L C R, Side: L R, LFE
Частота : 48,0 КГц
Частота кадров : 93,750 кадра/сек (512 spf)
Битовая глубина : 24 бит
Метод сжатия : С потерями
Размер потока : 536 Мбайт (9%)
Заголовок : DTS 5.1 @ 768 kbps - DUB, Blu-ray 3D EUR
Язык : Russian
Default : Да
Forced : Нет
Аудио #2
Идентификатор : 3
Формат : AC-3
Формат/Информация : Audio Coding 3
Расширение режима : CM (complete main)
Параметр Endianness формата : Big
Идентификатор кодека : A_AC3
Продолжительность : 1 ч. 37 м.
Вид битрейта : Постоянный
Битрейт : 448 Кбит/сек
Каналы : 6 каналов
Расположение каналов : Front: L C R, Side: L R, LFE
Частота : 48,0 КГц
Частота кадров : 31,250 кадров/сек (1536 spf)
Метод сжатия : С потерями
Размер потока : 312 Мбайт (5%)
Заголовок : AC3 5.1 @ 448 kbps - DUB, Blu-ray 3D EUR
Язык : Ukrainian
Default : Нет
Forced : Нет
Аудио #3
Идентификатор : 4
Формат : DTS
Формат/Информация : Digital Theater Systems
Профиль формата : ES Matrix / Core
Режим : 16
Параметр Endianness формата : Big
Идентификатор кодека : A_DTS
Продолжительность : 1 ч. 37 м.
Вид битрейта : Постоянный
Битрейт : 1509 Кбит/сек
Каналы : 7 каналов / 6 каналов
Расположение каналов : Front: L C R, Side: L R, Back: C, LFE / Front: L C R, Side: L R, LFE
Частота : 48,0 КГц
Частота кадров : 93,750 кадра/сек (512 spf)
Битовая глубина : 24 бит
Метод сжатия : С потерями
Задержка видео : 11 мс.
Размер потока : 1,03 Гбайт (18%)
Заголовок : DTS 5.1 @ 1536 kbps
Язык : English
Default : Нет
Forced : Нет
Текст #1
Идентификатор : 5
Формат : UTF-8
Идентификатор кодека : S_TEXT/UTF8
Идентификатор кодека/Информация : UTF-8 Plain Text
Заголовок : Forced, iTunes
Язык : Russian
Default : Да
Forced : Нет
Текст #2
Идентификатор : 6
Формат : UTF-8
Идентификатор кодека : S_TEXT/UTF8
Идентификатор кодека/Информация : UTF-8 Plain Text
Заголовок : iTunes
Язык : Russian
Default : Нет
Forced : Нет
Текст #3
Идентификатор : 7
Формат : UTF-8
Идентификатор кодека : S_TEXT/UTF8
Идентификатор кодека/Информация : UTF-8 Plain Text
Заголовок : iTunes
Язык : Ukrainian
Default : Нет
Forced : Нет
Текст #4
Идентификатор : 8
Формат : UTF-8
Идентификатор кодека : S_TEXT/UTF8
Идентификатор кодека/Информация : UTF-8 Plain Text
Заголовок : Forced, iTunes
Язык : English
Default : Нет
Forced : Нет
Текст #5
Идентификатор : 9
Формат : UTF-8
Идентификатор кодека : S_TEXT/UTF8
Идентификатор кодека/Информация : UTF-8 Plain Text
Заголовок : iTunes
Язык : English
Default : Нет
Forced : Нет
Меню
00:00:00.000 : en:Chapter 1
00:03:45.892 : en:Chapter 2
00:08:58.287 : en:Chapter 3
00:11:45.913 : en:Chapter 4
00:14:59.565 : en:Chapter 5
00:19:38.218 : en:Chapter 6
00:22:52.788 : en:Chapter 7
00:28:27.247 : en:Chapter 8
00:30:26.115 : en:Chapter 9
00:33:45.481 : en:Chapter 10
00:36:57.256 : en:Chapter 11
00:39:18.355 : en:Chapter 12
00:42:35.344 : en:Chapter 13
00:46:20.611 : en:Chapter 14
00:51:37.719 : en:Chapter 15
00:53:25.285 : en:Chapter 16
00:56:28.718 : en:Chapter 17
00:59:35.405 : en:Chapter 18
01:04:03.172 : en:Chapter 19
01:08:15.758 : en:Chapter 20
01:11:29.910 : en:Chapter 21
01:16:25.247 : en:Chapter 22
01:23:10.110 : en:Chapter 23
01:27:36.960 : en:Chapter 24












   Похожие торренты   Торрент   Размер 
В этой теме нет новых непрочитанных сообщений. Босс-молокосос / The Boss Baby (Том МакГрат) [2017, мультфильм, комедия, семейный, BDRip 1080p] DUB / Мультфильмы (HD/BD Video)

129 | 8

5.63 ГБ

В этой теме нет новых непрочитанных сообщений. Босс-молокосос / The Boss Baby (Том МакГрат) [2017, мультфильм, комедия, семейный, BDRip 720p] DUB

0 | 5

5.4 ГБ

В этой теме нет новых непрочитанных сообщений. Босс-молокосос / The Boss Baby (Том МакГрат) [2017, мультфильм, комедия, семейный, BDRip-AVC ] DUB

27 | 4

1.46 ГБ

В этой теме нет новых непрочитанных сообщений. Босс-молокосос / The Boss Baby (Том МакГрат) [2017, мультфильм, комедия, семейный, BDRip-AVC] DUB

89 | 13

1.95 ГБ

В этой теме нет новых непрочитанных сообщений. Босс-молокосос / The Boss Baby (Том МакГрат) [2017, мультфильм, комедия, семейный, BDRip] DUB

185 | 8

1.46 ГБ

В этой теме нет новых непрочитанных сообщений. Босс-молокосос / The Boss Baby (Том МакГрат) [2017, мультфильм, комедия, семейный, BDRip-AVC] DUB

56 | 5

1.99 ГБ

В этой теме нет новых непрочитанных сообщений. Босс-молокосос / The Boss Baby (Том МакГрат) [2017, мультфильм, комедия, семейный, BDRip 1080p] DUB

19 | 5

11.07 ГБ




Вы не можете начинать темы
Вы не можете отвечать на сообщения
Вы не можете редактировать свои сообщения
Вы не можете удалять свои сообщения
Вы не можете добавлять вложения

Перейти:  
 Вход
ppkBB3cker v.2 © 2008-2014 @ PPK
[ Time : 0.030s | 18 Queries | GZIP : Off ]

cron