img image001 image001 image001 image001 image001 image001 image001 image001 image001 image001 image001 image001 image001 image001 image001 image001

Planets Sun Sun Sun
Статистика раздачи
Автор: Снежана | Размер: 1.99 ГБ | Добавлен: 01 авг 2018
Раздают: 68    Качают: 20
Скачать торрент
Скачать торрент
Описание торрента

СообщениеДобавлено: 01 авг 2018 

Шерлок Гномс / Sherlock Gnomes

Слоган: «Тотальное загномление»

Перевод: Профессиональный (полное дублирование) [iTunes]
Субтитры: Русские (Forced, full), английские [вшитые отключаемые]
Формат: BDRip-AVC, MKV, H.264, AC3
Страна: Великобритания, США
Режиссер: Джон Стивенсон
Жанр: мультфильм, фэнтези, комедия, детектив, приключения, семейный
Продолжительность: 01:26:18
Год выпуска: 2018
В ролях: Эмили Блант, Джонни Депп, Джеймс МакЭвой, Мэри Джей Блайдж, Майкл Кейн, Мэгги Смит, Чиветель Эджиофор, Стивен Мерчант

Описание: Гномео и Джульетту ждет новое захватывающее приключение — теперь в огромном Лондоне. Когда герои с семьями и друзьями переезжают в город, их главная забота — подготовить свой новый сад к весне. Но вскоре они узнают тревожную новость: по всему Лондону таинственным образом исчезают их собратья-гномы! И вот однажды Гномео и Джульетта, вернувшись домой, обнаруживают, что и вся их родня исчезла. В такой ситуации на выручку может прийти только… Шерлок Гномс. Известный детектив становится на защиту обитателей лондонских садов и не без помощи своего верного спутника Ватсона берется раскрыть запутанное дело.



Видео: 1024x428 (2,40:1), 23.976 fps, AVC MPEG-4 (H.264), ~2600 kbps, 0.228 bit/pixel
Аудио #1: Русский: 48 kHz, AC3 Dolby Digital, 3/2 (L,C,R,l,r) + LFE ch, ~384 kbp [Профессиональный (полное дублирование) [iTunes]]
Аудио #2: Английский: 48 kHz, AC3 Dolby Digital, 3/2 (L,C,R,l,r) + LFE ch, ~448 kbp [Оригинал]
Дополнительно: Сохранены оригинальные главы (чаптеры)



Общее
Уникальный идентификатор : 331847989227178228078619419318104696718 (0xF9A79912D723D0CD02994288B79D278E)
Полное имя : F:\Диск\04. МУЛЬТФИЛЬМЫ\Шерлок Гномс Sherlock Gnomes 2018\Sherlock.Gnomes.2018.mkv
Формат : Matroska
Версия формата : Version 4 / Version 2
Размер файла : 1,99 Гбайт
Продолжительность : 1 ч. 26 м.
Общий поток : 3296 Кбит/сек
Программа кодирования : XviD4PSP 7.0.455 DAILY
Библиотека кодирования : Lavf57.71.100
Примечание : Rip by Basma4i&TorrNADO
ErrorDetectionType : Per level 1
Attachments : poster.jpg
ENCODING_INFO : MATROSKA,WEBM > MKV Пользовательский / H264 > X264 ABR 2600kbps HQ / AC3 > AC3 CBR 384kbps / DTS > AC3 CBR 448kbps
Язык : und

Видео
Идентификатор : 1
Формат : AVC
Формат/Информация : Advanced Video Codec
Профиль формата :
Настройки формата : CABAC / 8 Ref Frames
Параметр CABAC формата : Да
Параметр RefFrames формата : 8 кадров
Идентификатор кодека : V_MPEG4/ISO/AVC
Продолжительность : 1 ч. 26 м.
Битрейт : 2398 Кбит/сек
Номинальный битрейт : 2600 Кбит/сек
Ширина : 1024 пикселя
Высота : 428 пикселей
Соотношение сторон : 2,40:1
Режим частоты кадров : Постоянный
Частота кадров : 23,976 (24000/1001) кадра/сек
Цветовое пространство : YUV
Субдискретизация насыщенности : 4:2:0
Битовая глубина : 8 бит
Тип развёртки : Прогрессивная
Бит/(Пиксели*Кадры) : 0.228
Размер потока : 1,45 Гбайт (73%)
Библиотека кодирования : x264 core 155 r2901M 7d0ff22
Настройки программы : cabac=1 / ref=8 / deblock=1:-3:-3 / analyse=0x3:0x133 / me=umh / subme=8 / psy=1 / psy_rd=1.00:0.20 / mixed_ref=1 / me_range=16 / chroma_me=1 / trellis=2 / 8x8dct=1 / cqm=0 / deadzone=21,11 / fast_pskip=1 / chroma_qp_offset=-3 / threads=8 / lookahead_threads=1 / sliced_threads=0 / nr=0 / decimate=1 / interlaced=0 / bluray_compat=0 / constrained_intra=0 / bframes=8 / b_pyramid=2 / b_adapt=1 / b_bias=8 / direct=1 / weightb=1 / open_gop=0 / weightp=1 / keyint=240 / keyint_min=24 / scenecut=40 / intra_refresh=0 / rc_lookahead=40 / rc=abr / mbtree=1 / bitrate=2600 / ratetol=1.0 / qcomp=0.60 / qpmin=0 / qpmax=69 / qpstep=4 / ip_ratio=1.40 / aq=1:1.00
Язык : English
Default : Да
Forced : Нет
Цветовой диапазон : Limited
Основные цвета : BT.709
Характеристики трансфера : BT.709
Коэффициенты матрицы : BT.709

Аудио #1
Идентификатор : 2
Формат : AC-3
Формат/Информация : Audio Coding 3
Идентификатор кодека : A_AC3
Продолжительность : 1 ч. 26 м.
Вид битрейта : Постоянный
Битрейт : 384 Кбит/сек
Каналы : 6 каналов
Расположение каналов : Front: L C R, Side: L R, LFE
Частота : 48,0 КГц
Частота кадров : 31,250 кадров/сек (1536 SPF)
Битовая глубина : 16 бит
Метод сжатия : С потерями
Размер потока : 237 Мбайт (12%)
Заголовок : iTunes
Язык : Russian
ServiceKind/String : Complete Main
Default : Да
Forced : Да

Аудио #2
Идентификатор : 3
Формат : AC-3
Формат/Информация : Audio Coding 3
Идентификатор кодека : A_AC3
Продолжительность : 1 ч. 26 м.
Вид битрейта : Постоянный
Битрейт : 448 Кбит/сек
Каналы : 6 каналов
Расположение каналов : Front: L C R, Side: L R, LFE
Частота : 48,0 КГц
Частота кадров : 31,250 кадров/сек (1536 SPF)
Битовая глубина : 16 бит
Метод сжатия : С потерями
Размер потока : 277 Мбайт (14%)
Заголовок : Original
Язык : English
ServiceKind/String : Complete Main
Default : Да
Forced : Нет

Текст #1
Идентификатор : 4
Формат : UTF-8
Идентификатор кодека : S_TEXT/UTF8
Идентификатор кодека/Информация : UTF-8 Plain Text
Заголовок : Forced
Язык : Russian
Default : Да
Forced : Да

Текст #2
Идентификатор : 5
Формат : UTF-8
Идентификатор кодека : S_TEXT/UTF8
Идентификатор кодека/Информация : UTF-8 Plain Text
Заголовок : Full
Язык : Russian
Default : Да
Forced : Нет

Текст #3
Идентификатор : 6
Формат : UTF-8
Идентификатор кодека : S_TEXT/UTF8
Идентификатор кодека/Информация : UTF-8 Plain Text
Заголовок : Full
Язык : English
Default : Нет
Forced : Нет

Меню
00:00:00.000 : :00:00:00.000
00:05:36.127 : :00:05:36.127
00:10:50.650 : :00:10:50.650
00:16:40.166 : :00:16:40.166
00:24:05.944 : :00:24:05.944
00:29:44.074 : :00:29:44.074
00:35:39.512 : :00:35:39.512
00:40:52.909 : :00:40:52.909
00:45:41.530 : :00:45:41.530
00:52:31.982 : :00:52:31.982
00:58:29.756 : :00:58:29.756
01:04:58.520 : :01:04:58.520
01:10:40.069 : :01:10:40.069
01:16:03.058 : :01:16:03.058
01:17:55.212 : :01:17:55.212







Релиз от:



   Похожие торренты   Торрент   Размер 
В этой теме нет новых непрочитанных сообщений. Шерлок Гномс / Sherlock Gnomes (Джон Стивенсон) [2018, мультфильм, фэнтези, комедия, детектив, приключения, семейный, HDRip] DUB

152 | 0

1.37 ГБ

В этой теме нет новых непрочитанных сообщений. Шерлок Гномс / Sherlock Gnomes (2018) BDRip от MegaPeer | iTunes

0 | 0

1.42 ГБ

В этой теме нет новых непрочитанных сообщений. Шерлок Гномс / Sherlock Gnomes (2018) BDRip-AVC от OlLanDGroup | iTunes

35 | 2

1.5 ГБ

В этой теме нет новых непрочитанных сообщений. Шерлок Гномс / Sherlock Gnomes (2018) BDRip от ExKinoRay | iTunes

74 | 0

1.42 ГБ

В этой теме нет новых непрочитанных сообщений. Шерлок Гномс / Sherlock Gnomes (2018) HDRip от MegaPeer | iTunes

0 | 0

745.25 МБ

В этой теме нет новых непрочитанных сообщений. Шерлок Гномс / Sherlock Gnomes (2018) HDRip от Generalfilm | КПК | iTunes

60 | 7

328.38 МБ

В этой теме нет новых непрочитанных сообщений. Шерлок Гномс / Sherlock Gnomes (2017) BDRip 720p от ExKinoRay | iTunes

0 | 0

3.65 ГБ




Вы не можете начинать темы
Вы не можете отвечать на сообщения
Вы не можете редактировать свои сообщения
Вы не можете удалять свои сообщения
Вы не можете добавлять вложения

Перейти:  
 Вход
ppkBB3cker v.2 © 2008-2014 @ PPK
[ Time : 0.026s | 15 Queries | GZIP : Off ]

cron