img image001 image001 image001 image001 image001 image001 image001 image001 image001 image001 image001 image001 image001 image001 image001 image001

Planets Sun Sun Sun
Статистика раздачи
Автор: Снежана | Размер: 221.13 МБ | Добавлен: 14 авг 2018
Раздают: 24    Качают: 0
Скачать торрент
Скачать торрент
Описание торрента

СообщениеДобавлено: 14 авг 2018 

Информация о фильме
Название: Короткометражки Overwatch: Общий сбор / Жизнь и смерть / Два дракона / Герой
Оригинальное название: Overwatch
Год выхода: 2016
Жанр: Короткометражка, фантастика, боевик
О фильме: Короткие анимационные ролики, созданные Blizzard Entertainment, которые раскрывают историю героев и мира Overwatch.
В короткометражке «Общий сбор» речь пойдет об Уинстоне — горилле, созданной с помощью генной инженерии. Уинстон — блестящий ученый, который мечтает о возвращении героического прошлого и борется с желанием вновь созвать агентов Overwatch вместе. Тем временем в его лабораторию на заброшенном посту наблюдения Гибралтар вторгаются силы террористической организации «Коготь».
В «Жизни и смерти» речь идет о Роковой вдове — лучшей из убийц «Когтя», которая уничтожает жертв уверенно и хладнокровно. В этой серии мы на один короткий, но судьбоносный вечер перенесемся на Кингз Роу, и вы увидите, как одна-единственная смерть может изменить ход истории.
В третьей короткометражке проясняется история одного из самых напряженных и трагических конфликтов в мире Overwatch — между двумя братьями, сыновьями главы клана Шимада: Хандзо и Гэндзи. Хандзо возвращается в свой родной город Ханамура, чтобы искупить старые провинности и дать бой призракам прошлого.
В «Герое» мы проследим за действиями непримиримого борца Солдата-76 на личной миссии в Дорадо, где он расследует незаконную деятельность банды «Лос Муэртос». Однако одно неожиданное обстоятельство рискует сорвать всю операцию...
Страна: США
Студия: Blizzard Entertainment
Продолжительность: 00:06:38 + 00:08:03 + 00:08:01 + 00:06:25
Перевод: Профессиональный (дублированный)
Субтитры: Нет
Файл
Кодек: XviD
Качество: WEB-DLRip
Видео: 720x304 (2.37:1), 24 fps, XviD build 73 ~913 kbps avg, 0.17 bit/pixel
Звук: 44.100 kHz, MPEG Layer 3, 2 ch, ~128.00 kbps avg
General
Complete name : Overwatch.Obschii.Sbor.2016.WEB-DLRip.ot.Portablius.avi
Format : AVI
Format/Info : Audio Video Interleave
File size : 60.3 MiB
Duration : 8 min 1 s
Overall bit rate : 1 051 kb/s
Writing application : VirtualDubMod 1.5.10.3 | www.virtualdub-fr.org || (build 2550/release)
Writing library : VirtualDubMod build 2550/release
Video
ID : 0
Format : MPEG-4 Visual
Format profile : Advanced Simple@L5
Format settings, BVOP : 1
Format settings, QPel : No
Format settings, GMC : No warppoints
Format settings, Matrix : Custom
Codec ID : XVID
Codec ID/Hint : XviD
Duration : 8 min 1 s
Bit rate : 914 kb/s
Width : 720 pixels
Height : 304 pixels
Display aspect ratio : 2.35:1
Frame rate : 24.000 FPS
Color space : YUV
Chroma subsampling : 4:2:0
Bit depth : 8 bits
Scan type : Progressive
Compression mode : Lossy
Bits/(Pixel*Frame) : 0.174
Stream size : 52.4 MiB (87%)
Writing library : XviD 73
Audio
ID : 1
Format : MPEG Audio
Format version : Version 1
Format profile : Layer 3
Codec ID : 55
Codec ID/Hint : MP3
Duration : 8 min 1 s
Bit rate mode : Constant
Bit rate : 128 kb/s
Channel(s) : 2 channels
Sampling rate : 44.1 kHz
Compression mode : Lossy
Stream size : 7.34 MiB (12%)
Alignment : Split accross interleaves
Interleave, duration : 42 ms (1.00 video frame)
Interleave, preload duratio : 500 ms
Writing library : LAME3.99r
Encoding settings : -m s -V 4 -q 2 -lowpass 17 -b 128



   Похожие торренты   Торрент   Размер 
В этой теме нет новых непрочитанных сообщений. Короткометражки Overwatch / Overwatch (2016) WEB-DL 720p | D

601 | 19

280.7 МБ

В этой теме нет новых непрочитанных сообщений. OST - Overwatch (2016) MP3

21 | 0

112.67 МБ

В этой теме нет новых непрочитанных сообщений. OST - Overwatch (2016) FLAC

27 | 2

275.75 МБ

В этой теме нет новых непрочитанных сообщений. Герника / Gernika (2016) WEB-DLRip от Portablius | P

141 | 23

746.07 МБ

В этой теме нет новых непрочитанных сообщений. Джоши / Joshy (2016) WEB-DLRip от Portablius | L2

34 | 11

743.82 МБ

В этой теме нет новых непрочитанных сообщений. Мобильник / Cell (2016) WEB-DLRip от Portablius | L

405 | 38

745.38 МБ

В этой теме нет новых непрочитанных сообщений. Призыв / The Call Up (2016) WEB-DLRip от Portablius | L1

365 | 29

744.23 МБ




Вы не можете начинать темы
Вы не можете отвечать на сообщения
Вы не можете редактировать свои сообщения
Вы не можете удалять свои сообщения
Вы не можете добавлять вложения

Перейти:  
 Вход
ppkBB3cker v.2 © 2008-2014 @ PPK
[ Time : 0.042s | 18 Queries | GZIP : Off ]

cron