img image001 image001 image001 image001 image001 image001 image001 image001 image001 image001 image001 image001 image001 image001 image001 image001

Planets Sun Sun Sun
Статистика раздачи
Автор: Снежана | Размер: 4.68 ГБ | Добавлен: 14 авг 2018
Раздают: 157    Качают: 49
Скачать торрент
Скачать торрент
Описание торрента

СообщениеДобавлено: 14 авг 2018 

Кукутики
Страна: Россия
Год выпуска: 2015–2017
Жанр: мультфильм, детский
Продолжительность: 84х ~00:05:00
Режиссеры: Рустам Салахов, Артур Днепровский
Автор сценария: Артур Днепровский, Рустам Салахов
Описание: Развивающий мультсериал для самых маленьких, который поможет деткам быстрее усвоить слова и движения. Пойте и танцуйте вместе с кукутиками! Пятеро кукутиков – Мышонок, Поросенок, Енот, Девочка и Мальчик – одна команда. Вместе они проводят настоящее развлекательное шоу, в котором снимают музыкальные клипы. Присоединиться к съемкам могут и маленькие зрители. Участники шоу поют забавные детские песенки, помогают детям разучить их слова, а также учат танцевать в такт мелодии. Кроме того, их песенки расскажут детям о полезных вещах: как дружелюбно здороваться, как правильно попросить прощения и так далее. Танцуя вместе с кукутиками, дети разучат новые движения и научатся придумывать свои...

Перевод: не требуется (оригинал)
Субтитры: нет

Качество: WEBRip 1080р
Формат: МР4
Видео кодек: AVC
Аудио кодек: ААС
Видео: 1920x1080 (16:9), 25.000 fps, MPEG-4 AVC ~1 200 kbps avg
Аудио: 44.1 kHz, Advanced Audio Codec LC, 2/0 (L,R) ch, ~126 kbps

General
Полное имя : 076. КУКУТИКИ - Зоопарк (новая версия).mp4
Формат : MPEG-4
Профиль формата : Base Media
Идентификатор кодека : isom (isom/iso2/avc1/mp41)
Размер файла : 48,2 Мбайт
Продолжительность : 4 м. 52 с.
Общий поток : 1380 Кбит/сек
Программа кодирования : Lavf56.40.101
Идентификатор : 1
Формат : AVC
Формат/Информация : Advanced Video Codec
Профиль формата : High@L4
Настройки формата : CABAC / 3 Ref Frames
Параметр CABAC формата : Да
Параметр RefFrames формата : 3 кадра
Идентификатор кодека : avc1
Идентификатор кодека/Информация : Advanced Video Coding
Продолжительность : 4 м. 52 с.
Duration_FirstFrame : -40 мс.
Битрейт : 1248 Кбит/сек
Ширина : 1920 пикселей
Высота : 1080 пикселей
Соотношение сторон : 16:9
Режим частоты кадров : Переменный
Частота кадров : 25,000 кадров/сек
Минимальная частота кадров : 25,000 кадров/сек
Максимальная частота кадров : 25,014 кадров/сек
Цветовое пространство : YUV
Субдискретизация насыщенности : 4:2:0
Битовая глубина : 8 бит
Тип развёртки : Прогрессивная
Бит/(Пиксели*Кадры) : 0.024
Размер потока : 43,6 Мбайт (90%)
Цветовой диапазон : Limited
Основные цвета : BT.709
Характеристики трансфера : BT.709
Коэффициенты матрицы : BT.709
Идентификатор : 2
Формат : AAC
Формат/Информация : Advanced Audio Codec
Профиль формата : LC
Идентификатор кодека : mp4a-40-2
Продолжительность : 4 м. 52 с.
Вид битрейта : Постоянный
Битрейт : 126 Кбит/сек
Каналы : 2 канала
Расположение каналов : Front: L R
Частота : 44,1 КГц
Частота кадров : 43,066 кадра/сек (1024 SPF)
Метод сжатия : С потерями
Размер потока : 4,38 Мбайт (9%)
Default : Да



   Похожие торренты   Торрент   Размер 
В этой теме нет новых непрочитанных сообщений. Кукутики (2016) WEB-DLRip от ImperiaFilm

2355 | 23

591.48 МБ

В этой теме нет новых непрочитанных сообщений. Творческое объединение 420 - Сборник мультфильмов (2010-2015) WEBRip, WEBRip 1080р

330 | 27

3.14 ГБ

В этой теме нет новых непрочитанных сообщений. Футбол. Чемпионат Англии 2017-18. Championship. 5-й тур. Халл Сити — Болтон Уондерерз [26.08] (2017) WEBRip 1080р

7 | 2

2.9 ГБ

В этой теме нет новых непрочитанных сообщений. Футбол. Чемпионат Англии 2017-18. Championship. 6-й тур. Дерби Каунти - Халл Сити [08.09] (2017) WEBRip 1080р

18 | 3

2.59 ГБ

В этой теме нет новых непрочитанных сообщений. Теннис. ATP Indian Wells 2017. Финал. Стэн Вавринка - Роджер Федерер [19.03] (2017) WEBRip 1080р

10 | 0

5.23 ГБ

В этой теме нет новых непрочитанных сообщений. Логан / Logan (2017) WEBRip 1080р | L

1402 | 21

5.15 ГБ

В этой теме нет новых непрочитанных сообщений. Мумия / The Mummy (2017) WEBRip 1080р | L

394 | 4

4.08 ГБ




Вы не можете начинать темы
Вы не можете отвечать на сообщения
Вы не можете редактировать свои сообщения
Вы не можете удалять свои сообщения
Вы не можете добавлять вложения

Перейти:  
 Вход
ppkBB3cker v.2 © 2008-2014 @ PPK
[ Time : 0.034s | 15 Queries | GZIP : Off ]

cron