img image001 image001 image001 image001 image001 image001 image001 image001 image001 image001 image001 image001 image001 image001 image001 image001

Planets Sun Sun Sun
Статистика раздачи
Автор: Снежана | Размер: 3.09 ГБ | Добавлен: 14 авг 2018
Раздают: 48    Качают: 5
Скачать торрент
Скачать торрент
Описание торрента

СообщениеДобавлено: 14 авг 2018 

Информация о фильме
Название: Смерть Супермена
Оригинальное название: The Death of Superman
Год выхода: 2018
Жанр: мультфильм, фантастика, боевик
Режиссеры: Jake Castorena, Сэм Лью
В ролях: Джерри О’Коннелл, Ребекка Ромейн, Рэйн Уилсон, Розарио Доусон, Нэйтан Филлион, Кристофер Горам, Мэтт Лантер, Шемар Мур, Ньямби Ньямби, Джейсон О’Мара
О фильме:
Кларк Кент подумывает о том, чтобы раскрыть возлюбленной Лоис Лэйн свой самый большой секрет — что он является Суперменом. В это же время на Землю прибывает страшное чудовище Думсдэй, обладающее невероятной силой и злобой. Все супергерои в составе Лиги справедливости с трудом сдерживают монстра, поэтому Супермену придётся отложить свои личные дела и постараться помочь товарищам победить врага.

Страна: США
Продолжительность: 01:20:54
Перевод: Любительский (многоголосый, закадровый) | Flarrow Films
Файл
Формат: MKV
Кодек: MPEG-4 AVC
Качество: WEB-DLRip 1080p
Видео: 1920x1078, 5155 kb/s, 23.976 FPS, 8 bits
Звук: AAC, 312 kb/s, 48.0 kHz, 2 channels
Субтитры: отсутствуют




General
Unique ID : 163515301853787784988912439318746254039 (0x7B03E6D09B1966D581A6603FEBE84AD7)
Complete name : D:DownloadsMoviesThe.Death.of.SupermanWEB-DLRip.1O8Op.Flarrow.Films.[free-tor].mkv
Format : Matroska
Format version : Version 4 / Version 2
File size : 3.09 GiB
Duration : 1 h 20 min
Overall bit rate : 5 470 kb/s
Movie name : The.Death.of.Superman.2018.1080p.WEB-DL.DD5.1.H264-FGT
Encoded date : UTC 2018-07-09 16:56:13
Writing application : mkvmerge v21.0.0 ('Tardigrades Will Inherit The Earth') 64-bit
Writing library : libebml v1.3.5 + libmatroska v1.4.8
Cover : Yes
Attachments : small_cover.jpg / small_cover_land.jpg / cover.jpg / cover_land.jpg
Video
ID : 1
Format : AVC
Format/Info : Advanced Video Codec
Format profile : High@L4
Format settings : CABAC / 4 Ref Frames
Format settings, CABAC : Yes
Format settings, ReFrames : 4 frames
Codec ID : V_MPEG4/ISO/AVC
Duration : 1 h 20 min
Bit rate : 5 155 kb/s
Width : 1 920 pixels
Height : 1 078 pixels
Display aspect ratio : 16:9
Frame rate mode : Constant
Frame rate : 23.976 FPS
Color space : YUV
Chroma subsampling : 4:2:0
Bit depth : 8 bits
Scan type : Progressive
Bits/(Pixel*Frame) : 0.104
Stream size : 2.91 GiB (94%)
Title : The.Death.of.Superman.2018.1080p.WEB-DL.DD5.1.H264-FGT
Language : English
Default : Yes
Forced : No
Color range : Limited
Color primaries : BT.709
Transfer characteristics : BT.709
Matrix coefficients : BT.709
Audio
ID : 2
Format : AAC
Format/Info : Advanced Audio Codec
Format profile : LC
Codec ID : A_AAC-2
Duration : 1 h 20 min
Bit rate : 312 kb/s
Channel(s) : 2 channels
Channel positions : Front: L R
Sampling rate : 48.0 kHz
Frame rate : 46.875 FPS (1024 SPF)
Compression mode : Lossy
Stream size : 181 MiB (6%)
Default : Yes
Forced : No



Релиз от: Flarrow Films
Роли озвучивали: Дмитрий Савкин, Екатерина Дмитрова, Денис Кузьмичёв, Lunar Arrow, Daelit, Ron, Ofelia, AshVoice, Nogoodvoice





   Похожие торренты   Торрент   Размер 
В этой теме нет новых непрочитанных сообщений. Смерть Супермена / The Death of Superman (2018) BDRemux 1080p | HDRezka Studio

20 | 2

9.81 ГБ

В этой теме нет новых непрочитанных сообщений. Смерть Супермена / The Death of Superman (2018) BDRip 1080p | HDrezka Studio

84 | 1

3.38 ГБ

В этой теме нет новых непрочитанных сообщений. Смерть Супермена / The Death of Superman (Джейк Касторена, Сэм Лью) [2018, мультфильм, фантастика, боевик, BDRip-AVC] MVO

10 | 0

1.83 ГБ

В этой теме нет новых непрочитанных сообщений. Скуби-Ду и Призрак-гурман / Scooby-Doo! and the Gourmet Ghost (2018) WEB-DLRip 1080p | Flarrow Films

173 | 37

2.93 ГБ

В этой теме нет новых непрочитанных сообщений. Бэтмен-ниндзя / Batman Ninja (2018) BDRip 1080p | Flarrow Films

49 | 3

8.07 ГБ

В этой теме нет новых непрочитанных сообщений. Дафна и Велма / Daphne & Velma (2018) HDRip 1080p | Flarrow Films

395 | 81

1.47 ГБ

В этой теме нет новых непрочитанных сообщений. Южный парк / South Park [22x01-02 из 10] (2018) WEBRip 1080p | Flarrow Films

61 | 31

984.46 МБ




Вы не можете начинать темы
Вы не можете отвечать на сообщения
Вы не можете редактировать свои сообщения
Вы не можете удалять свои сообщения
Вы не можете добавлять вложения

Перейти:  
cron
 Вход
ppkBB3cker v.2 © 2008-2014 @ PPK
[ Time : 0.027s | 15 Queries | GZIP : Off ]

cron