img image001 image001 image001 image001 image001 image001 image001 image001 image001 image001 image001 image001 image001 image001 image001 image001

Planets Sun Sun Sun
Статистика раздачи
Автор: Снежана | Размер: 437.02 МБ | Добавлен: 14 авг 2018
Раздают: 64    Качают: 4
Скачать торрент
Скачать торрент
Описание торрента

СообщениеДобавлено: 14 авг 2018 

Информация о фильме
Название: Трое из Простоквашино
Год выхода: 1978-1984
Жанр: мультфильм, короткометражка
Режиссер: Владимир Попов
В ролях: Мария Виноградова, Олег Табаков, Лев Дуров, Борис Новиков, Герман Качин, Валентина Талызина
О фильме: Жил-был мальчик по прозвищу Дядя Федор. Он очень любил животных, но его родители и слышать ничего не хотели о том, чтобы в их квартире завелся кто-то хвостатый и лохматый. И пришлось Дяде Федору со своими новыми приятелями — котом Матроскиным и верным песиком Шариком — отправиться в деревню Простоквашино.

Студия: Союзмультфильм
Продолжительность: 3 мульта по ~ 17 мин.
Перевод: Оригинал (лицензия)
Субтитры: Нет
Файл
Кодек: XviD
Качество: HDRip
Видео: 576x432 (1.33:1), 25 fps, XviD build 73 ~1158 kbps avg, 0.19 bit/pixel
Звук: 48 kHz, MPEG Layer 3, 2 ch, ~128.00 kbps avg
General
Complete name : 3.Zima.v.Prostokvashino.1984.HDRip.ot.Portablius.avi
Format : AVI
Format/Info : Audio Video Interleave
File size : 146 MiB
Duration : 15 min 41 s
Overall bit rate : 1 297 kb/s
Writing application : VirtualDubMod 1.5.10.3 | www.virtualdub-fr.org || (build 2550/release)
Writing library : VirtualDubMod build 2550/release
Video
ID : 0
Format : MPEG-4 Visual
Format profile : Advanced Simple@L5
Format settings, BVOP : 1
Format settings, QPel : No
Format settings, GMC : No warppoints
Format settings, Matrix : Custom
Codec ID : XVID
Codec ID/Hint : XviD
Duration : 15 min 41 s
Bit rate : 1 159 kb/s
Width : 576 pixels
Height : 432 pixels
Display aspect ratio : 4:3
Frame rate : 25.000 FPS
Color space : YUV
Chroma subsampling : 4:2:0
Bit depth : 8 bits
Scan type : Progressive
Compression mode : Lossy
Bits/(Pixel*Frame) : 0.186
Stream size : 130 MiB (89%)
Writing library : XviD 73
Audio
ID : 1
Format : MPEG Audio
Format version : Version 1
Format profile : Layer 3
Codec ID : 55
Codec ID/Hint : MP3
Duration : 15 min 41 s
Bit rate mode : Constant
Bit rate : 128 kb/s
Channel(s) : 2 channels
Sampling rate : 48.0 kHz
Compression mode : Lossy
Stream size : 14.4 MiB (10%)
Alignment : Aligned on interleaves
Interleave, duration : 40 ms (1.00 video frame)
Interleave, preload duratio : 504 ms
Writing library : LAME3.99r
Encoding settings : -m s -V 4 -q 2 -lowpass 17 -b 128



   Похожие торренты   Торрент   Размер 
В этой теме нет новых непрочитанных сообщений. Трое из Простоквашино (1978-1984) BDRip 720p

2127 | 88

1.31 ГБ

В этой теме нет новых непрочитанных сообщений. Трое из Простоквашино [Трилогия] (1978-1984) DVDRip от MediaClub | КПК

701 | 35

232.77 МБ

В этой теме нет новых непрочитанных сообщений. Класс 1984 / Class of 1984 (1982) HDRip от Portablius | A

48 | 11

745.19 МБ

В этой теме нет новых непрочитанных сообщений. Класс 1984 / Class of 1984 (1982) HDRip от Scarabey | A

34 | 1

1.44 ГБ

В этой теме нет новых непрочитанных сообщений. Трое волхвов / Les rois mages (2001) HDRip | P2, L1

84 | 17

2.05 ГБ

В этой теме нет новых непрочитанных сообщений. Трое волхвов / Les rois mages (2001) HDRip от ExKinoRay | P2

0 | 0

745.04 МБ

В этой теме нет новых непрочитанных сообщений. Трое в каноэ / Без весла / Without a paddle (2004) HDRip от Scarabey | D

271 | 31

749.22 МБ




Вы не можете начинать темы
Вы не можете отвечать на сообщения
Вы не можете редактировать свои сообщения
Вы не можете удалять свои сообщения
Вы не можете добавлять вложения

Перейти:  
 Вход
ppkBB3cker v.2 © 2008-2014 @ PPK
[ Time : 0.022s | 18 Queries | GZIP : Off ]

cron