img image001 image001 image001 image001 image001 image001 image001 image001 image001 image001 image001 image001 image001 image001 image001 image001

Planets Sun Sun Sun
Статистика раздачи
Автор: Снежана | Размер: 1.92 ГБ | Добавлен: 15 авг 2018
Раздают: 16    Качают: 10
Скачать торрент
Скачать торрент
Описание торрента

СообщениеДобавлено: 15 авг 2018 

Плюшевый монстр / Lino: Uma Aventura de Sete Vidas

Перевод: Профессиональный (полное дублированние) [iTunes], cубтитры: отсутствуют
Формат: WEBDLRip-AVC, MKV, H.264, AC3
Страна: Бразилия
Режиссер: Рафаэль Рибас
Жанр: мультфильм, семейный
Продолжительность: 01:32:25
Год выпуска: 2017
В ролях: Селтон Мелу, Дира Паис, Паола Оливейра, Луис Карлос Де Мораес, Гильерме Лопес, Хелио Рибейро, Лупа Мабузе, Лео Рабело, Марсело Чепа, Рейнальдо Родригес
Роли дублировали: Алексей Воробьев, Елена Темникова, Полина Максимова, Михаил Галустян, Сергей Чихачёв, Никита Прозоровский, Михаил Тихонов, Иван Жарков, Николай Кисличенко

Описание: Жизнь Лино — молодого парня, работающего аниматором в детском саду, — кажется беспросветной: его дом того и гляди развалится, девушки его не любят, а на работе целый день терроризируют дети. Отчаявшись, он решается обратиться к одному незадачливому магу, который обещает найти выход из любой ситуации. И маг находит способ кардинально изменить жизнь Лино. Однако с колдовством что-то пошло не так, и Лино превратился в огромного кота-монстра. Как всё вернуть назад и стать счастливым?



Видео: 1024x576 (16:9), 24,000 fps, AVC MPEG-4 (H.264), ~2600 kbps, 0.184 bit/pixel
Аудио: 48 kHz, AC3 Dolby Digital, 3/2 (L,C,R,l,r) + LFE ch, ~384 kbps
Дополнительно: Сохранены оригинальные главы (чаптеры)

Общее
Уникальный идентификатор : 41205275887485707120973664873586539586 (0x1EFFD8F3C8A2EDA35E9839262026BC42)
Полное имя : F:\Диск\04. МУЛЬТФИЛЬМЫ\Плюшевый монстр Lino Uma Aventura de Sete Vidas (2017)\Lino.Plushevy.monster.2017.mkv
Формат : Matroska
Версия формата : Version 4 / Version 2
Размер файла : 1,92 Гбайт
Продолжительность : 1 ч. 32 м.
Общий поток : 2981 Кбит/сек
Программа кодирования : XviD4PSP 7.0.455 DAILY
Библиотека кодирования : Lavf57.71.100
Примечание : Rip by Basma4i&TorrNADO
ErrorDetectionType : Per level 1
Attachments : poster.jpg
ENCODING_INFO : MATROSKA,WEBM > MKV Пользовательский / H264 > X264 ABR 2600kbps HQ / AC3 > AC3 CBR 384kbps
Язык : und

Видео
Идентификатор : 1
Формат : AVC
Формат/Информация : Advanced Video Codec
Профиль формата :
Настройки формата : CABAC / 8 Ref Frames
Параметр CABAC формата : Да
Параметр RefFrames формата : 8 кадров
Идентификатор кодека : V_MPEG4/ISO/AVC
Продолжительность : 1 ч. 32 м.
Битрейт : 2600 Кбит/сек
Ширина : 1024 пикселя
Высота : 576 пикселей
Соотношение сторон : 16:9
Режим частоты кадров : Постоянный
Частота кадров : 24,000 кадра/сек
Цветовое пространство : YUV
Субдискретизация насыщенности : 4:2:0
Битовая глубина : 8 бит
Тип развёртки : Прогрессивная
Бит/(Пиксели*Кадры) : 0.184
Размер потока : 1,64 Гбайт (85%)
Библиотека кодирования : x264 core 155 r2901M 7d0ff22
Настройки программы : cabac=1 / ref=8 / deblock=1:-3:-3 / analyse=0x3:0x133 / me=umh / subme=9 / psy=1 / psy_rd=1.00:0.20 / mixed_ref=1 / me_range=32 / chroma_me=1 / trellis=2 / 8x8dct=1 / cqm=0 / deadzone=21,11 / fast_pskip=1 / chroma_qp_offset=-3 / threads=10 / lookahead_threads=1 / sliced_threads=0 / nr=0 / decimate=1 / interlaced=0 / bluray_compat=0 / constrained_intra=0 / bframes=8 / b_pyramid=2 / b_adapt=1 / b_bias=8 / direct=1 / weightb=1 / open_gop=0 / weightp=1 / keyint=240 / keyint_min=24 / scenecut=40 / intra_refresh=0 / rc_lookahead=40 / rc=abr / mbtree=1 / bitrate=2600 / ratetol=1.0 / qcomp=0.60 / qpmin=0 / qpmax=69 / qpstep=4 / ip_ratio=1.40 / aq=1:1.00
Язык : English
Default : Да
Forced : Нет
Цветовой диапазон : Limited
Основные цвета : BT.709
Характеристики трансфера : BT.709
Коэффициенты матрицы : BT.709

Аудио
Идентификатор : 2
Формат : AC-3
Формат/Информация : Audio Coding 3
Идентификатор кодека : A_AC3
Продолжительность : 1 ч. 32 м.
Вид битрейта : Постоянный
Битрейт : 384 Кбит/сек
Каналы : 6 каналов
Расположение каналов : Front: L C R, Side: L R, LFE
Частота : 48,0 КГц
Частота кадров : 31,250 кадров/сек (1536 SPF)
Битовая глубина : 16 бит
Метод сжатия : С потерями
Размер потока : 254 Мбайт (13%)
Заголовок : iTunes
Язык : Russian
ServiceKind/String : Complete Main
Default : Да
Forced : Нет

Меню
00:00:00.000 : :-01
00:06:52.583 : :-02
00:13:23.291 : :-03
00:21:18.999 : :-04
00:27:58.624 : :-05
00:32:29.124 : :-06
00:37:39.540 : :-07
00:42:07.915 : :-08
00:48:17.748 : :-09
00:53:18.206 : :_10
00:58:31.497 : :_11
01:03:52.538 : :_12
01:10:49.412 : :_13
01:17:48.913 : :_14
01:22:02.871 : :_15







Релиз от:



   Похожие торренты   Торрент   Размер 
В этой теме нет новых непрочитанных сообщений. Плюшевый монстр / Lino: Uma Aventura de Sete Vidas (Рафаэль Рибас) [2017, Мультфильм, семейный, WEB-DLRip] DUB

53 | 0

1.37 ГБ

В этой теме нет новых непрочитанных сообщений. Плюшевый монстр / Lino: Uma Aventura de Sete Vidas (Рафаэль Рибас) [2017, Мультфильм, семейный, WEB-DL 720p] DUB

155 | 8

2.85 ГБ

В этой теме нет новых непрочитанных сообщений. Плюшевый монстр / Lino: Uma Aventura de Sete Vidas (Рафаэль Рибас) [2017, мультфильм, семейный, TeleSynch] DUB

18 | 0

1.37 ГБ

В этой теме нет новых непрочитанных сообщений. Плюшевый монстр / Lino: Uma Aventura de Sete Vidas (Рафаэль Рибас) [2017, Мультфильм, семейный, WEB-DL 1080p] DUB

134 | 2

3.56 ГБ

В этой теме нет новых непрочитанных сообщений. Поросёнок (1-10 серий из 10) (Наталья Березовая) [2014–2017, мультфильм, приключения, семейный, WEBDLRip]

31 | 0

1.07 ГБ

В этой теме нет новых непрочитанных сообщений. Тайная жизнь насекомых / Droles de petites betes (Арно Бурон, Антун Крингс) [2017, мультфильм, комедия, приключения, семейный, WEBDLRip]DUB

40 | 0

1.37 ГБ

В этой теме нет новых непрочитанных сообщений. Простоквашино (1-7 серия из 30) [2018, Мультфильм, семейный, WEBDLRip]

17 | 4

689.73 МБ




Вы не можете начинать темы
Вы не можете отвечать на сообщения
Вы не можете редактировать свои сообщения
Вы не можете удалять свои сообщения
Вы не можете добавлять вложения

Перейти:  
 Вход
ppkBB3cker v.2 © 2008-2014 @ PPK
[ Time : 0.325s | 16 Queries | GZIP : Off ]

cron