img image001 image001 image001 image001 image001 image001 image001 image001 image001 image001 image001 image001 image001 image001 image001 image001

Planets Sun Sun Sun
Статистика раздачи
Автор: Снежана | Размер: 17.86 ГБ | Добавлен: 16 авг 2018
Раздают: 2    Качают: 0
Скачать торрент
Скачать торрент
Описание торрента

СообщениеДобавлено: 16 авг 2018 

Город Героев: Новая История / Big Hero 6: The Series


Перевод: Профессиональный (многоголосый, закадровый) IdeaFilm
Субтитры: отсутствуют
Формат: WEB-DLRip 1080p, MKV, H.264, AC3
Страна: США
Режиссер: Стивен Хеневельд, Бен Джуоно, Николас Филиппи
Жанр: Фантастика, комедия, приключения, мультсериал
Всего серий: 17
Продолжительность: 15 х ~ 00:23:00
Год выпуска: 2017

В ролях: Скотт Эдсит, Джейми Чанг, Дженифер Льюис, Хари Пэйтон, Райан Поттер, Дэвид Шонесси, Хейли Тджу, Брукс Уилан, Энди Рихтер

Описание: Хиро Хамада поступил в Технический университет Сан-Франсокио, где учился его старший брат Тадаши. В первый же день в университете юный герой оказался в лаборатории Тадаши и нашел там микрочип Бэймакса. С помощью этого устройства Хиро надеялся восстановить робота, но его поспешные действия привели к неожиданным последствиям.



Видео: 1920x1080 (16:9), 23,976 fps, AVC (х264), , ~6965 Kbps avg, 0.140 bit/pixel
Аудио #1: Русский: 48 kHz, AC3 Dolby Digital, 2/0 (L,R), ~192 kbps
Аудио #2: Английский: 48 kHz, AC3 Dolby Digital, 2/0 (L,R), ~384 kbps

Внимание, присутствует реклама!
Раздача ведется путем добавления новых серий.

Добавлены 14-15 серии.


Внимание! Раздача ведётся путём добавления новых серий; при каждом добавлении создаётся новый торрент. Чтобы начать докачку новой серии, пользователям необходимо сделать следующее:
(1) остановить скачивание,
(2) удалить старый торрент у себя из клиента (старые серии удалять не надо),
(3) скачать новый торрент и запустить его у себя в клиенте вместо старого, при этом указать клиенту путь в старую папку куда и должно происходить скачивание новых серий.

Ваш клиент при этом должен произвести хеширование (проверку) старой папки (если не производит сам - помогите ему сделать это), и будет докачивать только те серии которых у вас ещё нет. Старые серии при этом не удаляются, а продолжают раздаваться!

Eсли вы уже удалили старые серии, то предотвратить повторную закачку старых серий можно, отжав галочку в соответствующих местах при запуске нового торрента. По возможности, желательно не удалять старые серии как можно дольше, чтобы релизёр не столько продолжал раздавать старые серии, а смог сконцентрироваться на новых.



Video
ID : 1
Format : AVC
Format/Info : Advanced Video Codec
Format profile :
Format settings, CABAC : Yes
Format settings, RefFrames : 4 frames
Codec ID : V_MPEG4/ISO/AVC
Duration : 22 min 46 s
Bit rate : 6 965 kb/s
Width : 1 920 pixels
Height : 1 080 pixels
Display aspect ratio : 16:9
Frame rate mode : Constant
Frame rate : 23.976 (24000/1001) FPS
Standard : NTSC
Color space : YUV
Chroma subsampling : 4:2:0
Bit depth : 8 bits
Scan type : Progressive
Bits/(Pixel*Frame) : 0.140
Stream size : 1.11 GiB (92%)
Language : English
Default : Yes
Forced : No
Color range : Limited
Color primaries : BT.709
Transfer characteristics : BT.709
Matrix coefficients : BT.709

Audio #1
ID : 2
Format : AC-3
Format/Info : Audio Coding 3
Format settings, Endianness : Big
Codec ID : A_AC3
Duration : 22 min 46 s
Bit rate mode : Constant
Bit rate : 192 kb/s
Channel(s) : 2 channels
Channel positions : Front: L R
Sampling rate : 48.0 kHz
Frame rate : 31.250 FPS (1536 SPF)
Bit depth : 16 bits
Compression mode : Lossy
Stream size : 31.3 MiB (3%)
Title : IDEAFILM
Language : Russian
Service kind : Complete Main
Default : Yes
Forced : No

Audio #2
ID : 3
Format : AC-3
Format/Info : Audio Coding 3
Codec ID : A_AC3
Duration : 22 min 6 s
Bit rate : 384 kb/s
Channel(s) : 2 channels
Sampling rate : 48.0 kHz
Frame rate : 31.250 FPS (1536 SPF)
Compression mode : Lossy
Stream size : 60.7 MiB (5%)
Language : English
Default : No
Forced : No







   Похожие торренты   Торрент   Размер 
В этой теме нет новых непрочитанных сообщений. Город Героев: Новая История, 1 сезон 1-13 серии из 21 / Big Hero 6: The Series (Стивен Хеневельд, Бен Джуоно, Николас Филиппи) [2017, фантастика, комедия, приключения, мультсериал, WEB-DLRip 1080p] MVO+Original

7 | 0

15.46 ГБ

В этой теме нет новых непрочитанных сообщений. Город Героев: Новая История, 1 сезон 1-17 серии из 21 / Big Hero 6: The Series (Стивен Хеневельд, Бен Джуоно, Николас Филиппи) [2017, фантастика, комедия, приключения, мультсериал, WEB-DLRip 1080p] MVO+Original

3 | 1

20.25 ГБ

В этой теме нет новых непрочитанных сообщений. Город Героев: Новая История, 1 сезон 1-4 серии из 21 / Big Hero 6: The Series (Стивен Хеневельд, Бен Джуоно, Николас Филиппи) [2017, фантастика, комедия, приключения, мультсериал, WEB-DLRip 1080p] MVO+Original

2 | 0

4.69 ГБ

В этой теме нет новых непрочитанных сообщений. Город Героев: Новая История, 1 сезон 1-18 серии из 21 / Big Hero 6: The Series (Стивен Хеневельд, Бен Джуоно, Николас Филиппи) [2017, фантастика, комедия, приключения, мультсериал, WEB-DLRip 1080p] MVO+Original

4 | 4

21.45 ГБ

В этой теме нет новых непрочитанных сообщений. Город Героев: Новая История, 1 сезон 1-16 серии из 17 / Big Hero 6: The Series (Стивен Хеневельд, Бен Джуоно, Николас Филиппи) [2017, фантастика, комедия, приключения, мультсериал, WEB-DLRip 1080p] MVO+Original

0 | 0

19.05 ГБ

В этой теме нет новых непрочитанных сообщений. Город Героев: Новая История, 1 сезон 1-13 серии из 21 / Big Hero 6: The Series (Стивен Хеневельд, Бен Джуоно, Николас Филиппи) [2017, фантастика, комедия, приключения, мультсериал, WEB-DLRip 720p] MVO+Original

10 | 0

9.33 ГБ

В этой теме нет новых непрочитанных сообщений. Город Героев: Новая История, 1 сезон 1-17 серии из 21 / Big Hero 6: The Series (Стивен Хеневельд, Бен Джуоно, Николас Филиппи) [2017, фантастика, комедия, приключения, мультсериал, WEB-DLRip 720p] MVO+Original

4 | 1

12.22 ГБ




Вы не можете начинать темы
Вы не можете отвечать на сообщения
Вы не можете редактировать свои сообщения
Вы не можете удалять свои сообщения
Вы не можете добавлять вложения

Перейти:  
 Вход
ppkBB3cker v.2 © 2008-2014 @ PPK
[ Time : 0.024s | 15 Queries | GZIP : Off ]

cron