img image001 image001 image001 image001 image001 image001 image001 image001 image001 image001 image001 image001 image001 image001 image001 image001

Planets Sun Sun Sun
Статистика раздачи
Автор: Снежана | Размер: 9.83 ГБ | Добавлен: 20 авг 2018
Раздают: 22    Качают: 13
Скачать торрент
Скачать торрент
Описание торрента

СообщениеДобавлено: 20 авг 2018 

Разочарование / Disenchantment


Перевод: Профессиональный (многоголосый, закадровый) IdeaFilm
Субтитры: отсутствуют
Формат: WEB-DLRip 720p, MKV, H.264, AC3
Страна: США
Режиссер: Фрэнк Марино
Жанр: Мультфильм, фэнтези, комедия, приключения
Всего серий: 10
Продолжительность: 10 х ~ 00:36:00
Год выпуска: 2018

В ролях: Эбби Джейкобсон, Нат Факсон, Эрик Андре, Джэйни Баттен, Мэтт Берри, Джон Ди Маджио, Ноэль Филдинг, Рич Фулчер, Дэвид Херман, Морис ЛаМарш

Описание: Действие разворачивается в Средневековье в королевстве Бинландия, где живёт юная принцесса-алкоголичка Бин. Отказавшись выходить замуж, Бин отправляется в путешествие по стране в компании эльфа и демона. По дороге трио встретит множество фантастических тварей и дураков людского происхождения.



Видео: 1280x720 (16:9), 23,976 fps, AVC (х264), , ~3837 kbps avg, 0.174 bit/pixel
Аудио #1 Rus: 48 kHz, AC3 Dolby Digital, 3/2 (L,C,R,l,r) + LFE ch, ~384 kbps
Аудио #2 Eng: 48 kHz, AC3 Dolby Digital, 3/2 (L,C,R,l,r) + LFE ch, ~640 kbps

Внимание, присутствует реклама!


Video
ID : 1
Format : AVC
Format/Info : Advanced Video Codec
Format profile :
Format settings : CABAC / 4 Ref Frames
Format settings, CABAC : Yes
Format settings, ReFrames : 4 frames
Codec ID : V_MPEG4/ISO/AVC
Duration : 35 min 54 s
Bit rate : 3 837 kb/s
Width : 1 280 pixels
Height : 720 pixels
Display aspect ratio : 16:9
Frame rate mode : Constant
Frame rate : 23.976 (24000/1001) FPS
Standard : NTSC
Color space : YUV
Chroma subsampling : 4:2:0
Bit depth : 8 bits
Scan type : Progressive
Bits/(Pixel*Frame) : 0.174
Stream size : 985 MiB (79%)
Language : English
Default : Yes
Forced : No
Color range : Limited
Color primaries : BT.709
Transfer characteristics : BT.709
Matrix coefficients : BT.709

Audio #1
ID : 2
Format : AC-3
Format/Info : Audio Coding 3
Commercial name : Dolby Digital
Codec ID : A_AC3
Duration : 35 min 54 s
Bit rate mode : Constant
Bit rate : 384 kb/s
Channel(s) : 6 channels
Channel positions : Front: L C R, Side: L R, LFE
Sampling rate : 48.0 kHz
Frame rate : 31.250 FPS (1536 SPF)
Bit depth : 16 bits
Compression mode : Lossy
Stream size : 98.6 MiB (8%)
Title : IDEAFILM
Language : Russian
Service kind : Complete Main
Default : Yes
Forced : No

Audio #2
ID : 3
Format : AC-3
Format/Info : Audio Coding 3
Codec ID : A_AC3
Duration : 35 min 14 s
Bit rate : 640 kb/s
Channel(s) : 6 channels
Sampling rate : 48.0 kHz
Frame rate : 31.250 FPS (1536 SPF)
Compression mode : Lossy
Stream size : 161 MiB (13%)
Language : English
Default : No
Forced : No







   Похожие торренты   Торрент   Размер 
В этой теме нет новых непрочитанных сообщений. Разочарование, 1 сезон 1-10 серии из 10 / Disenchantment (Фрэнк Марино) [2018, мультфильм, фэнтези, комедия, приключения, WEB-DLRip 1080p] MVO+Original

12 | 10

15.68 ГБ

В этой теме нет новых непрочитанных сообщений. Разочарование, 1 сезон 1-10 серии из 10 / Disenchantment (Фрэнк Марино) [2018, мультфильм, фэнтези, комедия, приключения, WEB-DLRip] MVO

36 | 13

4.31 ГБ

В этой теме нет новых непрочитанных сообщений. Разочарование, 1 сезон 1-10 серий из 10 / Disenchantment (Уэсли Арчер, Фрэнк Марино, Дэвид Д. Ау) [2018, мультфильм, фэнтези, комедия, приключения, WEBDLRip] MVO

83 | 11

4.67 ГБ

В этой теме нет новых непрочитанных сообщений. Разочарование, 1 сезон 1-10 серии из 10 / Disenchantment [NewStation] (Мэтт Грейнинг) [2018, Мультсериал, фэнтези, комедия, приключения, WEB-DLRip] MVO + Original

10 | 8

4.48 ГБ

В этой теме нет новых непрочитанных сообщений. Разочарование, 1 сезон 1-10 серии из 10 / Disenchantment [NewStation] (Мэтт Грейнинг) [2018, Мультсериал, фэнтези, комедия, приключения, WEB-DL 720p] MVO + Original + RUS, ENG Sub / Мультфильмы (HD/BD Video)

5 | 6

7.72 ГБ

В этой теме нет новых непрочитанных сообщений. Разочарование, 1 сезон 1-10 серии из 10 / Disenchantment [NewStation] (Мэтт Грейнинг) [2018, Мультсериал, фэнтези, комедия, приключения, WEB-DL 1080p] MVO + Original + RUS, ENG Sub / Мультфильмы (HD/BD Video)

3 | 3

11.4 ГБ

В этой теме нет новых непрочитанных сообщений. Ши-Ра и непобедимые принцессы, 1 сезон 1-6 серии из 13 / She-Ra and the Princesses of Power (Ноэль Стивенсон) [2018, мультфильм, фантастика, фэнтези, боевик, приключения, семейный, WEB-DLRip 720p] MVO+Original

0 | 0

4.91 ГБ




Вы не можете начинать темы
Вы не можете отвечать на сообщения
Вы не можете редактировать свои сообщения
Вы не можете удалять свои сообщения
Вы не можете добавлять вложения

Перейти:  
 Вход
ppkBB3cker v.2 © 2008-2014 @ PPK
[ Time : 0.017s | 15 Queries | GZIP : Off ]

cron