img image001 image001 image001 image001 image001 image001 image001 image001 image001 image001 image001 image001 image001 image001 image001 image001

Planets Sun Sun Sun
Статистика раздачи
Автор: Снежана | Размер: 4.31 ГБ | Добавлен: 20 авг 2018
Раздают: 36    Качают: 13
Скачать торрент
Скачать торрент
Описание торрента

СообщениеДобавлено: 20 авг 2018 

Разочарование / Disenchantment


Перевод: Профессиональный (многоголосый, закадровый) IdeaFilm
Субтитры: отсутствуют
Формат: WEB-DLRip, AVI, XviD, AC3
Страна: США
Режиссер: Фрэнк Марино
Жанр: Мультфильм, фэнтези, комедия, приключения
Всего серий: 10
Продолжительность: 10 х ~ 00:36:00
Год выпуска: 2018

В ролях: Эбби Джейкобсон, Нат Факсон, Эрик Андре, Джэйни Баттен, Мэтт Берри, Джон Ди Маджио, Ноэль Филдинг, Рич Фулчер, Дэвид Херман, Морис ЛаМарш

Описание: Действие разворачивается в Средневековье в королевстве Бинландия, где живёт юная принцесса-алкоголичка Бин. Отказавшись выходить замуж, Бин отправляется в путешествие по стране в компании эльфа и демона. По дороге трио встретит множество фантастических тварей и дураков людского происхождения.



Видео: 720x400 (16:9), 23.976 fps, XviD MPEG-4 ~1753 kbps avg, 0.254 bit/pixel
Аудио #1 Rus: 48 kHz, AC3 Dolby Digital, 3/2 (L,C,R,l,r) + LFE ch, ~384 kbps

Внимание, присутствует реклама!


Video
ID : 0
Format : MPEG-4 Visual
Format profile : Advanced Simple@L5
Format settings : BVOP2
Format settings, BVOP : 2
Format settings, QPel : No
Format settings, GMC : No warppoints
Format settings, Matrix : Default (H.263)
Muxing mode : Packed bitstream
Codec ID : XVID
Codec ID/Hint : XviD
Duration : 35 min 54 s
Bit rate : 1 753 kb/s
Width : 720 pixels
Height : 400 pixels
Display aspect ratio : 16:9
Frame rate : 23.976 (24000/1001) FPS
Color space : YUV
Chroma subsampling : 4:2:0
Bit depth : 8 bits
Scan type : Progressive
Compression mode : Lossy
Bits/(Pixel*Frame) : 0.254
Stream size : 450 MiB (82%)
Writing library : XviD 67

Audio
ID : 1
Format : AC-3
Format/Info : Audio Coding 3
Commercial name : Dolby Digital
Codec ID : 2000
Duration : 35 min 54 s
Bit rate mode : Constant
Bit rate : 384 kb/s
Channel(s) : 6 channels
Channel positions : Front: L C R, Side: L R, LFE
Sampling rate : 48.0 kHz
Frame rate : 31.250 FPS (1536 SPF)
Bit depth : 16 bits
Compression mode : Lossy
Stream size : 98.6 MiB (18%)
Alignment : Aligned on interleaves
Interleave, duration : 42 ms (1.00 video frame)
Interleave, preload duratio : 512 ms
Service kind : Complete Main





   Похожие торренты   Торрент   Размер 
В этой теме нет новых непрочитанных сообщений. Разочарование, 1 сезон 1-10 серии из 10 / Disenchantment (Фрэнк Марино) [2018, мультфильм, фэнтези, комедия, приключения, WEB-DLRip 1080p] MVO+Original

12 | 10

15.68 ГБ

В этой теме нет новых непрочитанных сообщений. Разочарование, 1 сезон 1-10 серии из 10 / Disenchantment (Фрэнк Марино) [2018, мультфильм, фэнтези, комедия, приключения, WEB-DLRip 720p] MVO+Original

22 | 13

9.83 ГБ

В этой теме нет новых непрочитанных сообщений. Разочарование, 1 сезон 1-10 серий из 10 / Disenchantment (Уэсли Арчер, Фрэнк Марино, Дэвид Д. Ау) [2018, мультфильм, фэнтези, комедия, приключения, WEBDLRip] MVO

83 | 11

4.67 ГБ

В этой теме нет новых непрочитанных сообщений. Разочарование, 1 сезон 1-10 серии из 10 / Disenchantment [NewStation] (Мэтт Грейнинг) [2018, Мультсериал, фэнтези, комедия, приключения, WEB-DLRip] MVO + Original

10 | 8

4.48 ГБ

В этой теме нет новых непрочитанных сообщений. Разочарование, 1 сезон 1-10 серии из 10 / Disenchantment [NewStation] (Мэтт Грейнинг) [2018, Мультсериал, фэнтези, комедия, приключения, WEB-DL 720p] MVO + Original + RUS, ENG Sub / Мультфильмы (HD/BD Video)

5 | 6

7.72 ГБ

В этой теме нет новых непрочитанных сообщений. Разочарование, 1 сезон 1-10 серии из 10 / Disenchantment [NewStation] (Мэтт Грейнинг) [2018, Мультсериал, фэнтези, комедия, приключения, WEB-DL 1080p] MVO + Original + RUS, ENG Sub / Мультфильмы (HD/BD Video)

3 | 3

11.4 ГБ

В этой теме нет новых непрочитанных сообщений. Хильда, 1 сезон 1-13 серии из 13 / Hilda (Энди Койл) [2018, Мультсериал, фэнтези, комедия, приключения, WEB-DLRip 1080p] MVO

8 | 6

9.65 ГБ




Вы не можете начинать темы
Вы не можете отвечать на сообщения
Вы не можете редактировать свои сообщения
Вы не можете удалять свои сообщения
Вы не можете добавлять вложения

Перейти:  
 Вход
ppkBB3cker v.2 © 2008-2014 @ PPK
[ Time : 0.029s | 15 Queries | GZIP : Off ]

cron