img image001 image001 image001 image001 image001 image001 image001 image001 image001 image001 image001 image001 image001 image001 image001 image001

Planets Sun Sun Sun
Статистика раздачи
Автор: Снежана | Размер: 12.37 ГБ | Добавлен: 06 сен 2018
Раздают: 2    Качают: 0
Скачать торрент
Скачать торрент
Описание торрента

СообщениеДобавлено: 06 сен 2018 

Робоцып/ Robot Chicken

Перевод: Профессиональный (многоголосый, закадровый) IdeaFilm
Субтитры: отсутствуют
Формат: WEBRip, MKV, h.264, AC3
Страна: США
Режиссер: Крис МакКэй, Кевин Шиник, Мэттью Сенрейч
Жанр: мультфильм, комедия, пародия
Всего серий: 20
Продолжительность: 20х ~00:11:00
Год выпуска: 2018

В ролях: Сет Грин, Брекин Мейер, Мэттью Сенрейч, Дэн Милано, Том Рут, Чад Морган, Джэми Калер, Сет МакФарлейн, Абрахам Бенруби, Адам Талбот

Описание: «Робоцып» — калейдоскоп коротких скетчей, полных чёрного юмора и сатиры . Практически каждая сценка пародирует кино, теле-шоу, компьютерные игры, героев мультфильмов и комиксов, актёров, политиков, певцов и других знаменитостей, а также продукты питания, рекламные ролики или прочие проявления массовой культуры.

Рейтинг на:

Видео: 1920x1080 (16/9), 29,970 fps, AVC (х264), , ~6912 kbps avg, 0.111 bit/pixel
Аудио #1 Rus: :48 kHz, AC3 Dolby Digital, 3/2 (L,C,R,l,r) + LFE ch, ~384 kbps
Аудио #1 Eng: :48 kHz, AC3 Dolby Digital, 3/2 (L,C,R,l,r) + LFE ch, ~384 kbps

Внимание, присутствует реклама!

Общее
Уникальный идентификатор : 177959656675300817494667430639932122804 (0x85E1C87DB921D4A591E047A460F5A6B4)
Полное имя : H:\IdeaFilm\Robot.Chicken.S09.WEBRip.1080p\Robot.Chicken.S09E00.WEBRip.1080p-IdeaFilm.mkv
Формат : Matroska
Версия формата : Version 4 / Version 2
Размер файла : 667 Мбайт
Продолжительность : 12 м. 10 с.
Общий поток : 7661 Кбит/сек
Дата кодирования : UTC 2018-07-12 19:25:38
Программа кодирования : mkvmerge v12.0.0 ('Trust / Lust') 64bit
Библиотека кодирования : libebml v1.3.4 + libmatroska v1.4.5

Видео
Идентификатор : 1
Формат : AVC
Формат/Информация : Advanced Video Codec
Профиль формата :
Настройки формата : CABAC / 4 Ref Frames
Параметр CABAC формата : Да
Параметр RefFrames формата : 4 кадра
Идентификатор кодека : V_MPEG4/ISO/AVC
Продолжительность : 12 м. 10 с.
Битрейт : 6912 Кбит/сек
Ширина : 1920 пикселей
Высота : 1080 пикселей
Соотношение сторон : 16:9
Режим частоты кадров : Постоянный
Частота кадров : 29,970 (30000/1001) кадров/сек
Стандарт вещания : NTSC
Цветовое пространство : YUV
Субдискретизация насыщенности : 4:2:0
Битовая глубина : 8 бит
Тип развёртки : Прогрессивная
Бит/(Пиксели*Кадры) : 0.111
Размер потока : 602 Мбайт (90%)
Язык : English
Default : Да
Forced : Нет
Цветовой диапазон : Limited
Основные цвета : BT.709
Характеристики трансфера : BT.709
Коэффициенты матрицы : BT.709

Аудио #1
Идентификатор : 2
Формат : AC-3
Формат/Информация : Audio Coding 3
Идентификатор кодека : A_AC3
Продолжительность : 12 м. 10 с.
Вид битрейта : Постоянный
Битрейт : 384 Кбит/сек
Каналы : 6 каналов
Расположение каналов : Front: L C R, Side: L R, LFE
Частота : 48,0 КГц
Частота кадров : 31,250 кадров/сек (1536 SPF)
Битовая глубина : 16 бит
Метод сжатия : С потерями
Размер потока : 33,4 Мбайт (5%)
Заголовок : IdeaFilm
Язык : Russian
ServiceKind/String : Complete Main
Default : Да
Forced : Нет

Аудио #2
Идентификатор : 3
Формат : AC-3
Формат/Информация : Audio Coding 3
Идентификатор кодека : A_AC3
Продолжительность : 11 м. 30 с.
Битрейт : 384 Кбит/сек
Каналы : 6 каналов
Частота : 48,0 КГц
Частота кадров : 31,250 кадров/сек (1536 SPF)
Метод сжатия : С потерями
Размер потока : 31,6 Мбайт (5%)
Язык : English
Default : Нет
Forced : Нет







   Похожие торренты   Торрент   Размер 
В этой теме нет новых непрочитанных сообщений. Робоцып (9 сезон, 0-9 серия из 20) / Robot Chicken (Крис МакКэй, Кевин Шиник, Мэттью Сенрейч) [2018, мультфильм, комедия, пародия, WEBRip 1080p] MVO

0 | 0

6.11 ГБ

В этой теме нет новых непрочитанных сообщений. Робоцып (9 сезон, 0-7 серия из 20) / Robot Chicken (Крис МакКэй, Кевин Шиник, Мэттью Сенрейч) [2018, мультфильм, комедия, пародия, WEBRip 1080p] MVO

2 | 0

4.97 ГБ

В этой теме нет новых непрочитанных сообщений. Робоцып (9 сезон, 0-1 серия из 20) / Robot Chicken (Крис МакКэй, Кевин Шиник, Мэттью Сенрейч) [2018, мультфильм, комедия, пародия, WEBRip 1080p] MVO

1 | 2

1.27 ГБ

В этой теме нет новых непрочитанных сообщений. Робоцып (9 сезон, 0-8 серия из 20) / Robot Chicken (Крис МакКэй, Кевин Шиник, Мэттью Сенрейч) [2018, мультфильм, комедия, пародия, WEBRip 1080p] MVO

2 | 0

5.5 ГБ

В этой теме нет новых непрочитанных сообщений. Робоцып (9 сезон, 0-8 серия из 20) / Robot Chicken (Крис МакКэй, Кевин Шиник, Мэттью Сенрейч) [2018, мультфильм, комедия, пародия, WEBRip] MVO

2 | 1

1.4 ГБ

В этой теме нет новых непрочитанных сообщений. Робоцып (9 сезон, 0-20 серия из 20) / Robot Chicken (Крис МакКэй, Кевин Шиник, Мэттью Сенрейч) [2018, мультфильм, комедия, пародия, WEBRip] MVO

1 | 1

3.14 ГБ

В этой теме нет новых непрочитанных сообщений. Робоцып (9 сезон, 0-1 серия из 20) / Robot Chicken (Крис МакКэй, Кевин Шиник, Мэттью Сенрейч) [2018, мультфильм, комедия, пародия, WEBRip] MVO

10 | 0

325.79 МБ




Вы не можете начинать темы
Вы не можете отвечать на сообщения
Вы не можете редактировать свои сообщения
Вы не можете удалять свои сообщения
Вы не можете добавлять вложения

Перейти:  
 Вход
ppkBB3cker v.2 © 2008-2014 @ PPK
[ Time : 0.028s | 16 Queries | GZIP : Off ]

cron