img image001 image001 image001 image001 image001 image001 image001 image001 image001 image001 image001 image001 image001 image001 image001

Planets Sun Sun Sun

COVID-19 - Последняя информация о коронавирусе на сайте Минздрава


Статистика раздачи
Автор: Снежана | Размер: 893.07 МБ | Добавлен: 07 сен 2018
Раздают: 1    Качают: 0
Скачать торрент
Скачать торрент
Описание торрента

СообщениеДобавлено: 07 сен 2018 

Капитан Космоса / Captain of Cosmos

Перевод: Любительский (одноголосый) [Трамвай фильм], cубтитры: отсутствуют
Формат: DVDRip, AVI, XviD, MP3
Страна: Гонконг / Юж.Корея
Режиссер: Рой Томас
Жанр: фантастика
Продолжительность: 01:16:55
Год выпуска: 1979

Описание: Отважный капитан Лио, офицер отряда космических воинов, вступает в бой с армией отборных головорезов злой королевы, планету которой уничтожила ядерная катастрофа.

Доп. информация: Мультфильм издан для англоязычных стран фирмой Adda Audio Visual Ltd. Известен так же под оригинальным названием Wooju heukgisa или более ранним Johnny Destiny, Space Ninja.

Рейтинг на IMDB:
Видео: 640x480 (1.33:1), 25 fps, XviD build 50 ~1479 kbps avg, 0.19 bit/pixel
Аудио: 44.100 kHz, MPEG Layer 3, 2 ch, ~128.00 kbps avg

Complete name : Captain of Cosmos.avi
Format : AVI
Format/Info : Audio Video Interleave
File size : 893 MiB
Duration : 1 h 16 min
Overall bit rate : 1 623 kb/s

Video
ID : 0
Format : MPEG-4 Visual
Format profile : Simple@L3
Format settings, BVOP : No
Format settings, QPel : No
Format settings, GMC : No warppoints
Format settings, Matrix : Default (H.263)
Codec ID : XVID
Codec ID/Hint : XviD
Duration : 1 h 16 min
Bit rate : 1 479 kb/s
Width : 640 pixels
Height : 480 pixels
Display aspect ratio : 4:3
Frame rate : 25.000 FPS
Color space : YUV
Chroma subsampling : 4:2:0
Bit depth : 8 bits
Scan type : Progressive
Compression mode : Lossy
Bits/(Pixel*Frame) : 0.193
Stream size : 814 MiB (91%)
Writing library : XviD 1.2.1 (UTC 2008-12-04)

Audio
ID : 1
Format : MPEG Audio
Format version : Version 1
Format profile : Layer 3
Format settings : Joint stereo / MS Stereo
Codec ID : 55
Codec ID/Hint : MP3
Duration : 1 h 16 min
Bit rate mode : Constant
Bit rate : 128 kb/s
Channel(s) : 2 channels
Sampling rate : 44.1 kHz
Compression mode : Lossy
Stream size : 70.4 MiB (8%)
Alignment : Aligned on interleaves
Interleave, duration : 26 ms (0.65 video frame)
Writing library : LAME3.98.2







   Похожие торренты   Торрент   Размер 
В этой теме нет новых непрочитанных сообщений. Солнечные приключения / Solar Adventure (Рой Томас) [1985, анимация, фантастика, боевик, VHSRip] VO

7 | 0

500.8 МБ

В этой теме нет новых непрочитанных сообщений. Капитан Марвел / Captain Marvel (Анна Боден, Райан Флек ) [2019 , фантастика, боевик, приключения , BDRip] DUB / Фантастика

13 | 2

1.46 ГБ

В этой теме нет новых непрочитанных сообщений. Торрент Супер Титан 15 / Невероятные горизонты / Сокол 7 / Super Titan 15 / Wonder of Frontier / Falcon 7 (Рой Томас / Сёнг-Чёл Пак) [1983, фантастика, VHSRip-AVC] AVO

0 | 0

469.31 МБ

В этой теме нет новых непрочитанных сообщений. Капитан Марвел / Captain Marvel (Анна Боден, Райан Флек) [2019, приключения, фантастика, боевик, WEBDLRip] MVO

6 | 0

1.46 ГБ

В этой теме нет новых непрочитанных сообщений. Капитан Марвел / Captain Marvel (Анна Боден, Райан Флек) [2019, приключения, фантастика, боевик, TeleCine] MVO

4 | 0

2.05 ГБ

В этой теме нет новых непрочитанных сообщений. Капитан Марвел / Captain Marvel (Анна Боден, Райан Флек) [2019, приключения, фантастика, боевик, WEBDLRip] DUB

12 | 2

2.05 ГБ

В этой теме нет новых непрочитанных сообщений. Капитан Марвел / Captain Marvel (Анна Боден, Райан Флек) [2019, фантастика, боевик, приключения , HDRip] DUB

14 | 0

1.46 ГБ




Вы не можете начинать темы
Вы не можете отвечать на сообщения
Вы не можете редактировать свои сообщения
Вы не можете удалять свои сообщения
Вы не можете добавлять вложения

Перейти:  
Контактная информация: rstracker[пёсик]yandex.ru
 Вход
ppkBB3cker v.2 © 2008-2014 @ PPK
[ Time : 0.021s | 16 Queries | GZIP : Off ]

cron