img image001 image001 image001 image001 image001 image001 image001 image001 image001 image001 image001 image001 image001 image001 image001 image001

Planets Sun Sun Sun
Статистика раздачи
Автор: Снежана | Размер: 2.12 ГБ | Добавлен: 10 сен 2018
Раздают: 0    Качают: 0
Скачать торрент
Скачать торрент
Описание торрента

СообщениеДобавлено: 10 сен 2018 

Поул Позиция / Pole Position


Перевод: Любительский (одноголосый) [Трамвай-фильм], cубтитры: есть (перевод песен)
Формат: DVDRip-AVC, MKV, H.264, AAC
Страна: США, Япония
Режиссер: Бернард Дейрьес
Жанр: Приключения, Семейный, Спорт, Фантастика
Продолжительность: 00:24:26
Год выпуска: 1984

В ролях: Лиза Лингред, Девид Коберн, Калина Кифф, Джек Энжел, Мелвин Франклин, Дэррил Хикман

Описание:
Семья Дерретов Дэн, Тесс и Дейзи выступают в трюковом шоу "Полу-позиция" на высокотехнологичных автомобилях, при этом на самом деле молодые спортсмены являютcя агентами тайной организации борющейся с криминалом и шпионажем.



Видео: 640x480 (4:3), 25 fps, AVC MPEG-4 (x264), ~700 kbps avg, 0.091 bit/pixel
Аудио 1: Русский: 44.1 kHz, AAC-2, 2 ch, ~128.00 kbps avg (одноголосый, закадровый)
Аудио 2: Английский: 44.1 kHz, AAC-2, 2 ch, ~128.00 kbps avg (оригинал, английский)

Доп. информация: На русском языке - впервые в интернете, но главное под спойлером
В этом, 2018, году у меня юбилей, 10 лет переводческой деятельности. При этом редко когда обращаю особое внимание на проекты с которыми работаю, однако этот того стоит. Строго говоря, по сравнению с другими аналогичными мультсериалами 1980-х, ничего особенного в нем не было. Один сезон, 13 серий, по мотивам популярной компьютерной игры фирмы NAMKO, от которой остались только гонки, да название. Так почему же я решил заострить на нём внимание?
Потому что (на мой взгляд), это самое рафинирование воплощение мультфильмов 1980-х годов, тех самых, что крутили в 1991-1992 гг. по местным и кабельным каналам, в видеосалонах или просто на домашних видаках. Работая над ним, у меня было странное чувство восприятия, будто бы, я не в 2018 году перевожу мультфильм с нуля, а именно смотрю его именно в те годы, по местному телеканалу или на кассете. Сериал соответствует всем канонам детского ТВ 1980-х, яркий, красочный (к слову все аниматоры японцы, при этом нарисовано без идиотских ужимок и прыжков свойственных чисто японским мультам), совершенно без насилия, тут даже нет ни одной сцены с огнестрельным оружием.
Да, конечно сюжет в каждой серии детский, и взрослому человеку вряд-ли будет так захватывающе смотреть все повороты, когда многое предсказуемо, но дух приключения тут стоит на довольно высоком уровне, я бы поставил бы его в один ряд с "Утиными историями" (1987 г.)
Для целей ностальгии - это отличный вариант просмотра. Кроме того, я считаю что современным детям для ознакомления стоило бы показывать именно Поул-позицию, на фоне того какую жуть сейчас крутят по ТВ и интернету. Поэтому молодые и не очень родители, если вы солидарны со мной, обратите внимание на этот мультсериал.
Собственно высокая технологичность, которая в те времена казалась фантастикой, для дня сегодняшнего стала обыденностью, ну кого например удивить видеоконференцией, или поиском информации из Интернета? Если бы не мода Тесс и не отсутствие сотовых телефонов Поул-позицию можно было бы выдать за современное творение.


Complete name : Pole.Position.1984\01_The_Code.mkv
Format : Matroska
Format version : Version 4 / Version 2
File size : 167 MiB
Duration : 24 min 25 s
Overall bit rate : 955 kb/s
Encoded date : UTC 2018-08-11 11:19:17
Writing application : mkvmerge v7.1.0 ('Good Love') 32bit built on Jul 27 2014 12:59:18
Writing library : libebml v1.3.0 + libmatroska v1.4.1

Video
ID : 1
Format : AVC
Format/Info : Advanced Video Codec
Format profile :
Format settings : 1 Ref Frames
Format settings, CABAC : No
Format settings, ReFrames : 1 frame
Codec ID : V_MPEG4/ISO/AVC
Duration : 24 min 25 s
Bit rate : 700 kb/s
Width : 640 pixels
Height : 480 pixels
Display aspect ratio : 4:3
Frame rate mode : Constant
Frame rate : 25.000 FPS
Color space : YUV
Chroma subsampling : 4:2:0
Bit depth : 8 bits
Scan type : Progressive
Bits/(Pixel*Frame) : 0.091
Stream size : 122 MiB (73%)
Writing library : x264 core 129 r2230 1cffe9f
Encoding settings : cabac=0 / ref=1 / deblock=1:0:0 / analyse=0x1:0x111 / me=hex / subme=7 / psy=1 / psy_rd=1.00:0.00 / mixed_ref=0 / me_range=16 / chroma_me=1 / trellis=1 / 8x8dct=0 / cqm=0 / deadzone=21,11 / fast_pskip=1 / chroma_qp_offset=-2 / threads=2 / lookahead_threads=1 / sliced_threads=0 / nr=0 / decimate=1 / interlaced=0 / bluray_compat=0 / constrained_intra=0 / bframes=0 / weightp=0 / keyint=250 / keyint_min=25 / scenecut=40 / intra_refresh=0 / rc_lookahead=40 / rc=2pass / mbtree=1 / bitrate=700 / ratetol=1.0 / qcomp=0.60 / qpmin=0 / qpmax=69 / qpstep=4 / cplxblur=20.0 / qblur=0.5 / vbv_maxrate=768 / vbv_bufsize=1400 / nal_hrd=none / ip_ratio=1.40 / aq=1:1.00
Default : Yes
Forced : No

Audio #1
ID : 2
Format : AAC
Format/Info : Advanced Audio Codec
Format profile : LC
Codec ID : A_AAC-2
Duration : 24 min 25 s
Bit rate : 128 kb/s
Channel(s) : 2 channels
Channel positions : Front: L R
Sampling rate : 44.1 kHz
Frame rate : 43.066 FPS (1024 SPF)
Compression mode : Lossy
Delay relative to video : -23 ms
Stream size : 22.4 MiB (13%)
Title : Tramvai.film
Language : Russian
Default : Yes
Forced : No

Audio #2
ID : 3
Format : AAC
Format/Info : Advanced Audio Codec
Format profile : LC
Codec ID : A_AAC-2
Duration : 24 min 25 s
Bit rate : 127 kb/s
Channel(s) : 2 channels
Channel positions : Front: L R
Sampling rate : 44.1 kHz
Frame rate : 43.066 FPS (1024 SPF)
Compression mode : Lossy
Delay relative to video : -23 ms
Stream size : 22.2 MiB (13%)
Language : English
Default : No
Forced : No

Text
ID : 4
Format : UTF-8
Codec ID : S_TEXT/UTF8
Codec ID/Info : UTF-8 Plain Text
Duration : 45 s 730 ms
Bit rate : 124 b/s
Count of elements : 9
Stream size : 712 Bytes (0%)
Language : Russian
Default : Yes
Forced : No








   Похожие торренты   Торрент   Размер 
В этой теме нет новых непрочитанных сообщений. Приключения Эвоков / The Ewok Adventure (Джон Корти) [1984, Фантастика, Фэнтези, Приключения, Семейный, DVDRip-AVC] MVO / Фантастика

3 | 5

1.58 ГБ

В этой теме нет новых непрочитанных сообщений. Излом времени / A Wrinkle in Time (Ава ДюВерней) [2018, фантастика, фэнтези, приключения, семейный, BDRip] DUB / Фантастика

13 | 0

1.46 ГБ

В этой теме нет новых непрочитанных сообщений. Эвоки: Битва за Эндор / Ewoks: The Battle for Endor (Джим Уит, Кен Уит) [1985, Фантастика, Фэнтези, Приключения, Семейный, DVDRip-AVC] MVO+AVO

2 | 0

1.71 ГБ

В этой теме нет новых непрочитанных сообщений. Звездный путь 3: В поисках Спока / Star Trek III: The Search for Spock (Леонард Нимой) [1984, фантастика, боевик, триллер, приключения, BDRip] MVO / Фантастика

0 | 0

1.7 ГБ

В этой теме нет новых непрочитанных сообщений. Поле чудес / Field of Dreams (Фил Олден Робинсон) [1989, драма, фантастика, семейный, спорт, BDRip] MVO+AVO / Драмы

2 | 0

2.18 ГБ

В этой теме нет новых непрочитанных сообщений. Злой мозг из далекого космоса / Evil Brain From Outer Space (Тэуро Иший, Акира Митсува, Кореёши Акасака) [1964, Фантастика, Приключения, Семейный, DVDRip] VO

1 | 0

588.19 МБ

В этой теме нет новых непрочитанных сообщений. Аксель / A.X.L. (Оливер Дэйли) [2018, фантастика, приключения, семейный, TeleSynch] DUB

864 | 13

2.33 ГБ




Вы не можете начинать темы
Вы не можете отвечать на сообщения
Вы не можете редактировать свои сообщения
Вы не можете удалять свои сообщения
Вы не можете добавлять вложения

Перейти:  
 Вход
ppkBB3cker v.2 © 2008-2014 @ PPK
[ Time : 0.022s | 16 Queries | GZIP : Off ]

cron