img image001 image001 image001 image001 image001 image001 image001 image001 image001 image001 image001 image001 image001 image001 image001 image001

Planets Sun Sun Sun
Статистика раздачи
Автор: Снежана | Размер: 2.68 ГБ | Добавлен: 13 сен 2018
Раздают: 3    Качают: 1
Скачать торрент
Скачать торрент
Описание торрента

СообщениеДобавлено: 13 сен 2018 

Даллас и Робо / Dallas & Robo

Перевод: Любительский (двухголосый) [NewStation], cубтитры: отсутствуют
Формат: WEBRip, MKV, H.264, AC3
Страна: США
Режиссер: Энтони Стакки
Жанр: Комедия, приключения, фантастика
Продолжительность: 00:22:15
Год выпуска: 2018

В ролях: Джон Сина, Кэт Деннингс, Стивен Рут, Тим Блейк Нельсон, Дэна Снайдер, Милана Вайнтруб, Джанкарло Эспозито, Джейн Линч

Описание: Дерзкая космическая дальнобойщица Даллас и самопровозглашённый воин-поэт Робо, должны обходить байкеров-каннибалов, траки конкурентов и торговые автоматы с буррито, пытаясь выгадать лишний бакс в этом захудалом мире межпланетного сговора на торгах.

Рейтинг на IMDB: https://www.imdb.com/title/tt7896392/
Трейлеры: https://www.youtube.com/watch?v=WzJqHYySHPQ

Видео: 1920x1080 (16:9), 23.976 fps, AVC (х264) High@L4, 2721 kbps, 0.055 bit/pixe bit/pixe
Аудио: 48 kHz, AC3 Dolby Digital, 2/0 (L,R) ch, 256 kbps [Любительский (двухголосый, закадровый)] [NewStation]

Доп. информация: присутствует ненормативная лексика, рекламы нет


Внимание! Раздача ведётся путём добавления новых серий; при каждом добавлении создаётся новый торрент. Чтобы начать докачку новой серии, пользователям необходимо сделать следующее:
(1) остановить скачивание,
(2) удалить старый торрент у себя из клиента (старые серии удалять не надо),
(3) скачать новый торрент и запустить его у себя в клиенте вместо старого, при этом указать клиенту путь в старую папку куда и должно происходить скачивание новых серий.

Ваш клиент при этом должен произвести хеширование (проверку) старой папки (если не производит сам - помогите ему сделать это), и будет докачивать только те серии которых у вас ещё нет. Старые серии при этом не удаляются, а продолжают раздаваться!

Eсли вы уже удалили старые серии, то предотвратить повторную закачку старых серий можно, отжав галочку в соответствующих местах при запуске нового торрента. По возможности, желательно не удалять старые серии как можно дольше, чтобы релизёр не столько продолжал раздавать старые серии, а смог сконцентрироваться на новых.



General
Unique ID : 159555873856233585129110030177350390254 (0x780957F15640E93045EDDEEFA18F11EE)
Complete name : D:\NewStation\Dallas.and.Robo.s01.WEBRip.1080p.NewStation\Dallas.and.Robo.S01E01.WEBRip.1080p.NewStation.mkv
Format : Matroska
Format version : Version 4 / Version 2
File size : 482 MiB
Duration : 22 min 36 s
Overall bit rate : 2 979 kb/s
Encoded date : UTC 2018-06-01 14:54:48
Writing application : mkvmerge v19.0.0 ('Brave Captain') 64-bit
Writing library : libebml v1.3.5 + libmatroska v1.4.8

Video
ID : 1
Format : AVC
Format/Info : Advanced Video Codec
Format profile : High@L4
Format settings : CABAC / 2 Ref Frames
Format settings, CABAC : Yes
Format settings, RefFrames : 2 frames
Codec ID : V_MPEG4/ISO/AVC
Duration : 22 min 36 s
Bit rate : 2 721 kb/s
Width : 1 920 pixels
Height : 1 080 pixels
Display aspect ratio : 16:9
Frame rate mode : Constant
Frame rate : 23.976 (24000/1001) FPS
Color space : YUV
Chroma subsampling : 4:2:0
Bit depth : 8 bits
Scan type : Progressive
Bits/(Pixel*Frame) : 0.055
Stream size : 440 MiB (91%)
Default : Yes
Forced : No
Color range : Limited
Color primaries : BT.2020
Transfer characteristics : BT.709
Matrix coefficients : BT.2020 non-constant

Audio
ID : 2
Format : AC-3
Format/Info : Audio Coding 3
Codec ID : A_AC3
Duration : 22 min 36 s
Bit rate mode : Constant
Bit rate : 256 kb/s
Channel(s) : 2 channels
Channel positions : Front: L R
Sampling rate : 48.0 kHz
Frame rate : 31.250 FPS (1536 SPF)
Bit depth : 16 bits
Compression mode : Lossy
Stream size : 41.4 MiB (9%)
Title : NewStation
Language : Russian
Service kind : Complete Main
Default : Yes
Forced : No









   Похожие торренты   Торрент   Размер 
В этой теме нет новых непрочитанных сообщений. Даллас и Робо , 1 сезон 1-8 серии из 8 / Dallas & Robo [NewStation] (Энтони Стакки) [2018, Комедия, приключения, фантастика, WEBRip 1080p] DVO

3 | 1

4.22 ГБ

В этой теме нет новых непрочитанных сообщений. Даллас и Робо , 1 сезон 1-6 серии из 8 / Dallas & Robo [NewStation] (Энтони Стакки) [2018, Комедия, приключения, фантастика, WEBRip 1080p] DVO

2 | 0

3.18 ГБ

В этой теме нет новых непрочитанных сообщений. Даллас и Робо , 1 сезон 1-7 серии из 8 / Dallas & Robo [NewStation] (Энтони Стакки) [2018, Комедия, приключения, фантастика, WEBRip 1080p] DVO

2 | 0

3.66 ГБ

В этой теме нет новых непрочитанных сообщений. Даллас и Робо , 1 сезон 1-3 серии из 8 / Dallas & Robo [NewStation] (Энтони Стакки) [2018, Комедия, приключения, фантастика, WEBRip 1080p] DVO

2 | 9

1.64 ГБ

В этой теме нет новых непрочитанных сообщений. Даллас и Робо , 1 сезон 1-4 серии из 8 / Dallas & Robo [NewStation] (Энтони Стакки) [2018, Комедия, приключения, фантастика, WEBRip 1080p] DVO

2 | 0

2.15 ГБ

В этой теме нет новых непрочитанных сообщений. Даллас и Робо , 1 сезон 1 серия из 8 / Dallas & Robo [NewStation] (Энтони Стакки) [2018, Комедия, приключения, фантастика, WEBRip 1080p] DVO

4 | 0

481.74 МБ

В этой теме нет новых непрочитанных сообщений. Даллас и Робо / Dallas & Robo [01x01 из 8] (2018) WEBRip 1080p | NewStation

0 | 0

1021.25 МБ




Вы не можете начинать темы
Вы не можете отвечать на сообщения
Вы не можете редактировать свои сообщения
Вы не можете удалять свои сообщения
Вы не можете добавлять вложения

Перейти:  
 Вход
ppkBB3cker v.2 © 2008-2014 @ PPK
[ Time : 0.036s | 15 Queries | GZIP : Off ]

cron