img image001 image001 image001 image001 image001 image001 image001 image001 image001 image001 image001 image001 image001 image001 image001 image001

Planets Sun Sun Sun
Статистика раздачи
Автор: Снежана | Размер: 941.81 МБ | Добавлен: 13 сен 2018
Раздают: 4    Качают: 3
Скачать торрент
Скачать торрент
Описание торрента

СообщениеДобавлено: 13 сен 2018 

Вольтес пять / Voltes V


Перевод: Любительский (одноголосый) [Трамвай-фильм], cубтитры: отсутствуют
Формат: VHSRip, AVI, XviD, MP3
Страна: Филиппины, Япония
Режиссер: Вильям Росс
Жанр: Фантастика
Продолжительность: 01:28:10
Год выпуска: 1984

Описание: Предвидя вторжения с планеты Бозения доктор Армстронг строит на Земле гигантского робота, которого будут пилотировать 5 молодых людей включая 3-х его сыновей

Рейтинг на IMDB:

Видео: 480x368 (1.30:1), 25 fps, XviD build 50 ~1358 kbps avg, 0.31 bit/pixel
Аудио: 44.100 kHz, MPEG Layer 3, 2 ch, ~128.00 kbps avg

Доп. информация: Полуторочасовая компиляция трехсезонного японского сериала "Супер-Электромагнитная машина Вольтес-5". Данный фильм был смонтирован для проката в Филлипинах студией Uniprom film.
Оцифровка редкой кассеты.


Complete name : Voltes.V.VHS.Tramvai.Film.avi
Format : AVI
Format/Info : Audio Video Interleave
File size : 942 MiB
Duration : 1 h 28 min
Overall bit rate : 1 493 kb/s

Video
ID : 0
Format : MPEG-4 Visual
Format profile : Simple@L3
Format settings, BVOP : No
Format settings, QPel : No
Format settings, GMC : No warppoints
Format settings, Matrix : Default (H.263)
Codec ID : XVID
Codec ID/Hint : XviD
Duration : 1 h 28 min
Bit rate : 1 358 kb/s
Width : 480 pixels
Height : 368 pixels
Display aspect ratio : 4:3
Frame rate : 25.000 FPS
Color space : YUV
Chroma subsampling : 4:2:0
Bit depth : 8 bits
Scan type : Progressive
Compression mode : Lossy
Bits/(Pixel*Frame) : 0.306
Stream size : 851 MiB (90%)
Writing library : XviD 1.2.1 (UTC 2008-12-04)

Audio
ID : 1
Format : MPEG Audio
Format version : Version 1
Format profile : Layer 3
Format settings : Joint stereo / MS Stereo
Codec ID : 55
Codec ID/Hint : MP3
Duration : 1 h 28 min
Bit rate mode : Constant
Bit rate : 128 kb/s
Channel(s) : 2 channels
Sampling rate : 44.1 kHz
Compression mode : Lossy
Stream size : 80.7 MiB (9%)
Alignment : Aligned on interleaves
Interleave, duration : 26 ms (0.65 video frame)
Writing library : LAME3.98.2









   Похожие торренты   Торрент   Размер 
В этой теме нет новых непрочитанных сообщений. Плезантвиль / Pleasantville (Гэри Росс) [1998, фэнтези, драма, комедия, BDRip] DVO / Фантастика

3 | 0

2.18 ГБ

В этой теме нет новых непрочитанных сообщений. Пять бутылок водки (2001) VHSRip

164 | 14

1.37 ГБ

В этой теме нет новых непрочитанных сообщений. Ночь кометы / Night of the Comet (Том Эберхардт) [1984, фантастика, комедия, ужасы, BDRip] DVO / Фантастика

7 | 0

1.46 ГБ

В этой теме нет новых непрочитанных сообщений. Звездный путь 3: В поисках Спока / Star Trek III: The Search for Spock (Леонард Нимой) [1984, фантастика, боевик, триллер, приключения, BDRip] MVO / Фантастика

0 | 0

1.7 ГБ

В этой теме нет новых непрочитанных сообщений. Приключения Эвоков / The Ewok Adventure (Джон Корти) [1984, Фантастика, Фэнтези, Приключения, Семейный, DVDRip-AVC] MVO / Фантастика

3 | 5

1.58 ГБ

В этой теме нет новых непрочитанных сообщений. Потаскушка / La garce (1984) VHSRip | P

131 | 19

1.37 ГБ

В этой теме нет новых непрочитанных сообщений. Призрак / Malombra (1984) VHSRip | P1

66 | 59

1.34 ГБ




Вы не можете начинать темы
Вы не можете отвечать на сообщения
Вы не можете редактировать свои сообщения
Вы не можете удалять свои сообщения
Вы не можете добавлять вложения

Перейти:  
 Вход
ppkBB3cker v.2 © 2008-2014 @ PPK
[ Time : 0.034s | 15 Queries | GZIP : Off ]

cron