img image001 image001 image001 image001 image001 image001 image001 image001 image001 image001 image001 image001 image001 image001 image001 image001

Planets Sun Sun Sun
Статистика раздачи
Автор: Снежана | Размер: 1.52 ГБ | Добавлен: 13 сен 2018
Раздают: 178    Качают: 9
Скачать торрент
Скачать торрент
Описание торрента

СообщениеДобавлено: 13 сен 2018 

Следующее поколение / Next Gen

Перевод: Любительский (одноголосый) Solod
Cубтитры: отсутствуют
Формат: WebDlRip-AVC, MKV, H.264, AC3
Страна: Китай, Канада
Режиссер: Кевин Р. Адамс
Жанр: Мультфильм, комедия, приключения, фантастика
Продолжительность: 01:45:55
Год выпуска: 2018
В ролях: Джейсон Судейкис, Майкл Пеня, Дэвид Кросс
Описание: Недалекое будущее. Девушке-подростку Су приходится расти в изоляции: папы постоянно нет дома, а мама больше интересуется новыми технологиями, чем собственной дочерью. Однажды она приводит Су на выставку последних достижений науки и техники, где та случайно помогает сбежать из лаборатории роботу последнего поколения. Наконец-то у подростка появляется настоящий друг.

Видео: 1024x430 (2.40:1), 23.976 fps, AVC MPEG4 (x264), , 1600kbps, 0.151 bpp
Аудио: 48 kHz, AC3 Dolby Digital, 3/2 (L,C,R,l,r) + LFE ch, 448 kbps




General
Unique ID : 27865751021901748454378719625596916916 (0x14F6BF99367AD85E25535741F50454B4)
Complete name : next.gen.2018.1024.solod.rus.5.1.mkv
Format : Matroska
Format version : Version 4 / Version 2
File size : 1.52 GiB
Duration : 1 h 45 min
Overall bit rate : 2 051 kb/s
Movie name : Next Gen | 2018 | Solod
Encoded date : UTC 2018-09-11 20:41:36 / UTC 2018-09-11T06:23:14Z
Writing application : mkvmerge v23.0.0 ('The Bride Said No') 64-bit
Writing library : libebml v1.3.6 + libmatroska v1.4.9 / Lavf57.7.2

Video
ID : 1
Format : AVC
Format/Info : Advanced Video Codec
Format profile :
Format settings : CABAC / 10 Ref Frames
Format settings, CABAC : Yes
Format settings, ReFrames : 10 frames
Codec ID : V_MPEG4/ISO/AVC
Duration : 1 h 45 min
Bit rate : 1 600 kb/s
Width : 1 024 pixels
Height : 430 pixels
Display aspect ratio : 2.40:1
Original display aspect ratio : 2.40:1
Frame rate mode : Constant
Frame rate : 24.000 FPS
Color space : YUV
Chroma subsampling : 4:2:0
Bit depth : 8 bits
Scan type : Progressive
Bits/(Pixel*Frame) : 0.151
Stream size : 1.16 GiB (76%)
Writing library : x264 core 155
Encoding settings : cabac=1 / ref=10 / deblock=1:-2:-2 / analyse=0x3:0x113 / me=umh / subme=11 / psy=1 / psy_rd=1.00:10.00 / mixed_ref=1 / me_range=24 / chroma_me=1 / trellis=2 / 8x8dct=1 / cqm=0 / deadzone=21,11 / fast_pskip=1 / chroma_qp_offset=-4 / threads=6 / lookahead_threads=1 / sliced_threads=0 / nr=0 / decimate=1 / interlaced=0 / bluray_compat=0 / constrained_intra=0 / bframes=11 / b_pyramid=2 / b_adapt=1 / b_bias=0 / direct=1 / weightb=1 / open_gop=0 / weightp=2 / keyint=240 / keyint_min=24 / scenecut=40 / intra_refresh=0 / rc_lookahead=40 / rc=2pass / mbtree=1 / bitrate=1600 / ratetol=1.0 / qcomp=0.60 / qpmin=0 / qpmax=69 / qpstep=4 / cplxblur=20.0 / qblur=0.5 / vbv_maxrate=62500 / vbv_bufsize=78125 / nal_hrd=none / filler=0 / ip_ratio=1.40 / aq=1:1.00
Default : Yes
Forced : No
Color range : Limited
Color primaries : BT.601 NTSC
Transfer characteristics : BT.709
Matrix coefficients : BT.601
Statistics Tags Issue : mkvmerge v23.0.0 ('The Bride Said No') 64-bit 2018-09-11 20:41:36 / mkvmerge v23.0.0 ('The Bride Said No') 64-bit 2018-09-11 20:41:36 / UTC 2018-09-11T06:23:14Z
FromStats_BitRate : 1600912
FromStats_Duration : 01:45:54.959000000
FromStats_FrameCount : 152519
FromStats_StreamSize : 1271716741

Audio
ID : 2
Format : AC-3
Format/Info : Audio Coding 3
Codec ID : A_AC3
Duration : 1 h 45 min
Bit rate mode : Constant
Bit rate : 448 kb/s
Channel(s) : 6 channels
Channel positions : Front: L C R, Side: L R, LFE
Sampling rate : 48.0 kHz
Frame rate : 31.250 FPS (1536 SPF)
Bit depth : 16 bits
Compression mode : Lossy
Stream size : 339 MiB (22%)
Title : solod
Language : Russian
Service kind : Complete Main
Default : Yes
Forced : No
Statistics Tags Issue : mkvmerge v23.0.0 ('The Bride Said No') 64-bit 2018-09-11 20:41:36 / mkvmerge v23.0.0 ('The Bride Said No') 64-bit 2018-09-11 20:41:36 / UTC 2018-09-11T06:23:14Z
FromStats_BitRate : 448000
FromStats_Duration : 01:45:55.232000000
FromStats_FrameCount : 198601
FromStats_StreamSize : 355892992





   Похожие торренты   Торрент   Размер 
В этой теме нет новых непрочитанных сообщений. Следующее поколение / Next Gen (Кевин Р. Адамс, Джо Ксандер) [2018, мультфильм, фантастика, боевик, приключения, комедия, WEB-DLRip] DUB

122 | 13

1.46 ГБ

В этой теме нет новых непрочитанных сообщений. Следующее поколение / Next Gen (Кевин Р. Адамс, Джо Ксандер) [2018, мультфильм, фантастика, боевик, приключения, комедия, WEB-DL 1080p] DUB

469 | 21

4.47 ГБ

В этой теме нет новых непрочитанных сообщений. Следующее поколение / Next Gen (Кевин Р. Адамс, Джо Ксандер) [2018, мультфильм, фантастика, боевик, приключения, комедия, WEB-DL 720p] DUB+VO

51 | 13

3.81 ГБ

В этой теме нет новых непрочитанных сообщений. Следующее поколение / Next Gen (Кевин Р. Адамс, Джо Ксандер) [2018, мультфильм, фантастика, боевик, приключения, комедия, WEB-DLRip-AVC] DUB

29 | 10

1.89 ГБ

В этой теме нет новых непрочитанных сообщений. Следующее поколение / Next Gen (Кевин Р. Адамс, Джо Ксандер) [2018, мультфильм, фантастика, боевик, приключения, комедия, WEB-DLRip] DUB

27 | 3

745.38 МБ

В этой теме нет новых непрочитанных сообщений. Следующее поколение / Next Gen (Кевин Р. Адамс, Джо Ксандер) [2018, мультфильм, фантастика, боевик, приключения, комедия, WEB-DLRip] DUB

32 | 5

2.05 ГБ

В этой теме нет новых непрочитанных сообщений. Бэтмен и Харли Квинн / Batman and Harley Quinn (Сэм Лью) [2017, мультфильм, фантастика, фэнтези, боевик, комедия, приключения, BDRip-AVC] VO [Solod]

5 | 0

1.48 ГБ




Вы не можете начинать темы
Вы не можете отвечать на сообщения
Вы не можете редактировать свои сообщения
Вы не можете удалять свои сообщения
Вы не можете добавлять вложения

Перейти:  
 Вход
ppkBB3cker v.2 © 2008-2014 @ PPK
[ Time : 0.017s | 17 Queries | GZIP : Off ]

cron