img image001 image001 image001 image001 image001 image001 image001 image001 image001 image001 image001 image001 image001 image001 image001 image001

Planets Sun Sun Sun
Статистика раздачи
Автор: Снежана | Размер: 5.68 ГБ | Добавлен: 14 сен 2018
Раздают: 13    Качают: 0
Скачать торрент
Скачать торрент
Описание торрента

СообщениеДобавлено: 14 сен 2018 

Город Героев: Новая История / Big Hero 6: The Series


Перевод: Профессиональный (многоголосый, закадровый) IdeaFilm
Субтитры: отсутствуют
Формат: WEB-DLRip, AVI, XviD, AC3
Страна: США
Режиссер: Стивен Хеневельд, Бен Джуоно, Николас Филиппи
Жанр: Фантастика, комедия, приключения, мультсериал
Всего серий: 21
Продолжительность: 18 х ~ 00:23:00
Год выпуска: 2017

В ролях: Скотт Эдсит, Джейми Чанг, Дженифер Льюис, Хари Пэйтон, Райан Поттер, Дэвид Шонесси, Хейли Тджу, Брукс Уилан, Энди Рихтер

Описание: Хиро Хамада поступил в Технический университет Сан-Франсокио, где учился его старший брат Тадаши. В первый же день в университете юный герой оказался в лаборатории Тадаши и нашел там микрочип Бэймакса. С помощью этого устройства Хиро надеялся восстановить робота, но его поспешные действия привели к неожиданным последствиям.



Видео: 720x400 (16:9), 23.976 fps, XviD MPEG-4 ~1794 kbps avg, 0.60 bit/pixel
Аудио #1 Rus: 48 kHz, AC3 Dolby Digital, 2/0 (L,R), ~192 kbps

Внимание, присутствует реклама!
Раздача ведется путем добавления новых серий.

Добавлена 18 серия.


Внимание! Раздача ведётся путём добавления новых серий; при каждом добавлении создаётся новый торрент. Чтобы начать докачку новой серии, пользователям необходимо сделать следующее:
(1) остановить скачивание,
(2) удалить старый торрент у себя из клиента (старые серии удалять не надо),
(3) скачать новый торрент и запустить его у себя в клиенте вместо старого, при этом указать клиенту путь в старую папку куда и должно происходить скачивание новых серий.

Ваш клиент при этом должен произвести хеширование (проверку) старой папки (если не производит сам - помогите ему сделать это), и будет докачивать только те серии которых у вас ещё нет. Старые серии при этом не удаляются, а продолжают раздаваться!

Eсли вы уже удалили старые серии, то предотвратить повторную закачку старых серий можно, отжав галочку в соответствующих местах при запуске нового торрента. По возможности, желательно не удалять старые серии как можно дольше, чтобы релизёр не столько продолжал раздавать старые серии, а смог сконцентрироваться на новых.



Video
ID : 0
Format : MPEG-4 Visual
Format profile : Advanced Simple@L5
Format settings, BVOP : 2
Format settings, QPel : No
Format settings, GMC : No warppoints
Format settings, Matrix : Default (H.263)
Muxing mode : Packed bitstream
Codec ID : XVID
Codec ID/Hint : XviD
Duration : 22 min 46 s
Bit rate : 1 794 kb/s
Width : 720 pixels
Height : 400 pixels
Display aspect ratio : 16:9
Frame rate : 23.976 (24000/1001) FPS
Color space : YUV
Chroma subsampling : 4:2:0
Bit depth : 8 bits
Scan type : Progressive
Compression mode : Lossy
Bits/(Pixel*Frame) : 0.260
Stream size : 292 MiB (90%)
Writing library : XviD 73

Audio
ID : 1
Format : AC-3
Format/Info : Audio Coding 3
Format settings, Endianness : Big
Codec ID : 2000
Duration : 22 min 46 s
Bit rate mode : Constant
Bit rate : 192 kb/s
Channel(s) : 2 channels
Channel positions : Front: L R
Sampling rate : 48.0 kHz
Frame rate : 31.250 FPS (1536 SPF)
Bit depth : 16 bits
Compression mode : Lossy
Stream size : 31.3 MiB (10%)
Alignment : Aligned on interleaves
Interleave, duration : 42 ms (1.00 video frame)
Interleave, preload duratio : 512 ms
Service kind : Complete Main





   Похожие торренты   Торрент   Размер 
В этой теме нет новых непрочитанных сообщений. Город Героев: Новая История, 1 сезон 1-15 серии из 17 / Big Hero 6: The Series (Стивен Хеневельд, Бен Джуоно, Николас Филиппи) [2017, фантастика, комедия, приключения, мультсериал, WEB-DLRip] MVO

3 | 3

4.73 ГБ

В этой теме нет новых непрочитанных сообщений. Город Героев: Новая История, 1 сезон 1-4 серии из 21 / Big Hero 6: The Series (Стивен Хеневельд, Бен Джуоно, Николас Филиппи) [2017, фантастика, комедия, приключения, мультсериал, WEB-DLRip] MVO

1 | 2

1.24 ГБ

В этой теме нет новых непрочитанных сообщений. Город Героев: Новая История, 1 сезон 1-17 серии из 21 / Big Hero 6: The Series (Стивен Хеневельд, Бен Джуоно, Николас Филиппи) [2017, фантастика, комедия, приключения, мультсериал, WEB-DLRip] MVO

13 | 5

5.36 ГБ

В этой теме нет новых непрочитанных сообщений. Город Героев: Новая История, 1 сезон 1-16 серии из 17 / Big Hero 6: The Series (Стивен Хеневельд, Бен Джуоно, Николас Филиппи) [2017, фантастика, комедия, приключения, мультсериал, WEB-DLRip] MVO

9 | 1

5.04 ГБ

В этой теме нет новых непрочитанных сообщений. Город Героев: Новая История, 1 сезон 1-13 серии из 21 / Big Hero 6: The Series (Стивен Хеневельд, Бен Джуоно, Николас Филиппи) [2017, фантастика, комедия, приключения, мультсериал, WEB-DLRip] MVO

11 | 1

4.1 ГБ

В этой теме нет новых непрочитанных сообщений. Город Героев: Новая История, 1 сезон 1-18 серии из 21 / Big Hero 6: The Series (Стивен Хеневельд, Бен Джуоно, Николас Филиппи) [2017, фантастика, комедия, приключения, мультсериал, WEB-DLRip 1080p] MVO+Original

4 | 4

21.45 ГБ

В этой теме нет новых непрочитанных сообщений. Город Героев: Новая История, 1 сезон 1-13 серии из 21 / Big Hero 6: The Series (Стивен Хеневельд, Бен Джуоно, Николас Филиппи) [2017, фантастика, комедия, приключения, мультсериал, WEB-DLRip 720p] MVO+Original

10 | 0

9.33 ГБ




Вы не можете начинать темы
Вы не можете отвечать на сообщения
Вы не можете редактировать свои сообщения
Вы не можете удалять свои сообщения
Вы не можете добавлять вложения

Перейти:  
 Вход
ppkBB3cker v.2 © 2008-2014 @ PPK
[ Time : 0.021s | 17 Queries | GZIP : Off ]

cron