img image001 image001 image001 image001 image001 image001 image001 image001 image001 image001 image001 image001 image001 image001 image001 image001

Planets Sun Sun Sun
Статистика раздачи
Автор: Снежана | Размер: 7.63 ГБ | Добавлен: 14 сен 2018
Раздают: 0    Качают: 1
Скачать торрент
Скачать торрент
Описание торрента

СообщениеДобавлено: 14 сен 2018 

Братья Вентура / The Venture Bros.


Перевод: Профессиональный (многоголосый, закадровый) IdeaFilm
Субтитры: отсутствуют
Формат: WEB-DLRip 1080p, MKV, H.264, AC3
Страна: США
Режиссер: Кристофер Маккаллок, Джон Шнепп, Ки-Ён Пай
Жанр: Мультфильм, фантастика, комедия
Всего серий: 8
Продолжительность: 6 х ~ 00:24:00
Год выпуска: 2018

В ролях: Кристофер Маккаллок, Джеймс Урбаняк, Майкл Синтерниклаас, Док Хаммер, Патрик Варбертон, Стивен Раттацци, Пол Букок, Соул-Бот, Лиза Хаммер, Дэна Снайдер

Описание: Сериал рассказывает о двух неразлучных и таких разных братьев Вентура. Одного из них зовут Дин, другого Хенк. Удивительно, как таким подросткам удается в течение короткого времени попадать в такое количество разных неприятностей. Дин — очень хороший парень, спокойный, мягкий, даже с людьми общается вежливо и ведет себя с ними осторожно, пытаясь не оскорбить или задеть их чувства. В то же время Хенк — полная ему противоположность: он совсем не привык церемониться с людьми, очень активный, в нем много энергии, и он все время пытается ее куда-то деть, предпринимая самые разные задумки. Он часто тянет за собой брата, который особо этому и не противится. Кроме них главным действующим лицом является их отец, доктор Вентура. Он сын другого гениального изобретателя. Доктор Вентура время от времени занимается продажами тех изобретений, что были созданы его отцом, на эти деньги они и живут. Но это не значит, что он растрачивает деньги впустую, являясь сам хорошим изобретателем и ученым, он достиг не малых высот в теме клонирования. Он создает роботов, на которые сразу же нашелся спрос у разных бандитских формирований. С этого момента он должен защитить себя и свою семью от наездов бандитов.



Видео: 1920x1080 (16:9), 23,976 fps, AVC (х264), , ~6968 Kbps avg, 0.140 bit/pixel
Аудио #1 Rus: 48 kHz, AC3 Dolby Digital, 3/2 (L,C,R,l,r) + LFE ch, ~384 kbps
Аудио #2 Eng: 48 kHz, AC3 Dolby Digital, 3/2 (L,C,R,l,r) + LFE ch, ~640 kbps

Внимание, присутствует реклама!
Раздача ведется путем добавления новых серий.

Добавлены 4-6 серии.


Внимание! Раздача ведётся путём добавления новых серий; при каждом добавлении создаётся новый торрент. Чтобы начать докачку новой серии, пользователям необходимо сделать следующее:
(1) остановить скачивание,
(2) удалить старый торрент у себя из клиента (старые серии удалять не надо),
(3) скачать новый торрент и запустить его у себя в клиенте вместо старого, при этом указать клиенту путь в старую папку куда и должно происходить скачивание новых серий.

Ваш клиент при этом должен произвести хеширование (проверку) старой папки (если не производит сам - помогите ему сделать это), и будет докачивать только те серии которых у вас ещё нет. Старые серии при этом не удаляются, а продолжают раздаваться!

Eсли вы уже удалили старые серии, то предотвратить повторную закачку старых серий можно, отжав галочку в соответствующих местах при запуске нового торрента. По возможности, желательно не удалять старые серии как можно дольше, чтобы релизёр не столько продолжал раздавать старые серии, а смог сконцентрироваться на новых.



Video
ID : 1
Format : AVC
Format/Info : Advanced Video Codec
Format profile :
Format settings : CABAC / 4 Ref Frames
Format settings, CABAC : Yes
Format settings, ReFrames : 4 frames
Codec ID : V_MPEG4/ISO/AVC
Duration : 23 min 13 s
Bit rate : 6 968 kb/s
Width : 1 920 pixels
Height : 1 080 pixels
Display aspect ratio : 16:9
Frame rate mode : Constant
Frame rate : 23.976 (24000/1001) FPS
Standard : NTSC
Color space : YUV
Chroma subsampling : 4:2:0
Bit depth : 8 bits
Scan type : Progressive
Bits/(Pixel*Frame) : 0.140
Stream size : 1.13 GiB (87%)
Language : English
Default : Yes
Forced : No
Color range : Limited
Color primaries : BT.709
Transfer characteristics : BT.709
Matrix coefficients : BT.709

Audio #1
ID : 2
Format : AC-3
Format/Info : Audio Coding 3
Commercial name : Dolby Digital
Codec ID : A_AC3
Duration : 23 min 13 s
Bit rate mode : Constant
Bit rate : 384 kb/s
Channel(s) : 6 channels
Channel positions : Front: L C R, Side: L R, LFE
Sampling rate : 48.0 kHz
Frame rate : 31.250 FPS (1536 SPF)
Bit depth : 16 bits
Compression mode : Lossy
Stream size : 63.8 MiB (5%)
Title : IDEAFILM
Language : Russian
Service kind : Complete Main
Default : Yes
Forced : No

Audio #2
ID : 3
Format : AC-3
Format/Info : Audio Coding 3
Codec ID : A_AC3
Duration : 22 min 33 s
Bit rate : 640 kb/s
Channel(s) : 6 channels
Sampling rate : 48.0 kHz
Frame rate : 31.250 FPS (1536 SPF)
Compression mode : Lossy
Stream size : 103 MiB (8%)
Language : English
Default : No
Forced : No







   Похожие торренты   Торрент   Размер 
В этой теме нет новых непрочитанных сообщений. Братья Вентура, 7 сезон 1-6 серии из 8 / The Venture Bros. (Кристофер Маккаллок, Джон Шнепп, Ки-Ён Пай) [2018, мультфильм, фантастика, комедия, WEB-DLRip 720p] MVO+Original / Мультфильмы (HD/BD Video)

2 | 0

4.81 ГБ

В этой теме нет новых непрочитанных сообщений. Братья Вентура, 7 сезон 1-3 серии из 5 / The Venture Bros. (Кристофер Маккаллок, Джон Шнепп, Ки-Ён Пай) [2018, мультфильм, фантастика, комедия, WEB-DLRip 1080p] MVO+Original

0 | 0

3.9 ГБ

В этой теме нет новых непрочитанных сообщений. Братья Вентура, 7 сезон 1-3 серии из 5 / The Venture Bros. (Кристофер Маккаллок, Джон Шнепп, Ки-Ён Пай) [2018, мультфильм, фантастика, комедия, WEB-DLRip] MVO+Original

6 | 2

1.08 ГБ

В этой теме нет новых непрочитанных сообщений. Братья Вентура, 7 сезон 1-6 серии из 8 / The Venture Bros. (Кристофер Маккаллок, Джон Шнепп, Ки-Ён Пай) [2018, мультфильм, фантастика, комедия, WEB-DLRip] MVO+Original

0 | 0

2.12 ГБ

В этой теме нет новых непрочитанных сообщений. Братья Вентура, 7 сезон 1-3 серии из 5 / The Venture Bros. (Кристофер Маккаллок, Джон Шнепп, Ки-Ён Пай) [2018, мультфильм, фантастика, комедия, WEB-DLRip 720p] MVO+Original

4 | 1

2.45 ГБ

В этой теме нет новых непрочитанных сообщений. Лощина, 1 сезон 1-10 серии из 10 / The Hollow (Джош Мепхем, Грег Салливан) [2018, мультфильм, фантастика, драма, WEB-DLRip 1080p] MVO+Original / Мультфильмы (HD/BD Video)

4 | 2

12.65 ГБ

В этой теме нет новых непрочитанных сообщений. Лощина, 1 сезон 1-10 серии из 10 / The Hollow (Джош Мепхем, Грег Салливан) [2018, мультфильм, фантастика, драма, WEB-DLRip 720p] MVO+Original / Мультфильмы (HD/BD Video)

15 | 8

7.75 ГБ




Вы не можете начинать темы
Вы не можете отвечать на сообщения
Вы не можете редактировать свои сообщения
Вы не можете удалять свои сообщения
Вы не можете добавлять вложения

Перейти:  
 Вход
ppkBB3cker v.2 © 2008-2014 @ PPK
[ Time : 0.034s | 17 Queries | GZIP : Off ]

cron