img image001 image001 image001 image001 image001 image001 image001 image001 image001 image001 image001 image001 image001 image001 image001 image001

Planets Sun Sun Sun
Статистика раздачи
Автор: Снежана | Размер: 4.03 ГБ | Добавлен: 25 сен 2018
Раздают: 10    Качают: 1
Скачать торрент
Скачать торрент
Описание торрента

СообщениеДобавлено: 25 сен 2018 

Тэд-путешественник и тайна царя Мидаса / Tadeo Jones 2: El secreto del Rey Midas

Перевод: Профессиональный (полное дублирование)
Субтитры: Русские, английские
Формат: BDRip, MKV, H.264, AC3
Страна: Испания
Режиссер: Давид Алонсо, Энрике Гато
Жанр: мультфильм, комедия, приключения
Продолжительность: 01:24:58
Год выпуска: 2017

В ролях: Оскар Барберан, Мишель Хеннер, Адриана Угарте, Луис Посада, Мигель Анхель Хеннер, Хосе Корбачо, Росер Баталья, Рафаэль Калво, Давид Брау, Франческ Бельда

Описание: Археолог-авантюрист и прирожденный охотник за сокровищами Тадео Джонс (Тревор Уайт) ввязывается в новые приключения, на этот раз отправляясь в Лас-Вегас. Там он мечтает своими глазами посмотреть на древний папирус, найденный его приятельницей — путешественницей Сарой (Мишель Хеннер). Этот папирус имеет непосредственное доказательство существования магического ожерелья короля Мидаса, с помощью которого он мог превратить любой предмет в золото. По приезду в Лас-Вегас Тадео обнаруживает, что его приятельница была похищена коварным Джеком Рэкхэмом, который планирует использовать папирус для своих корыстных целей.

[url=http://www.kinopoisk.ru/film/

Видео: 1280x544p (2.35:1), 23.976 fps, AVC MPEG-4 (H.264), ~5500 kbps, 0.329 bit/pixel
Аудио #1: Русский: 48 kHz, AC3 Dolby Digital, 6 ch, ~640 kbps [Профессиональный (полное дублирование)]
Аудио #2: Английский: 48 kHz, AC3 Dolby Digital, 6 ch, ~640 kbps [Профессиональный (полное дублирование)]

Формат : Matroska
Версия формата : Version 4 / Version 2
Размер файла : 4,03 Гбайт
Продолжительность : 1 ч. 24 м.
Общий поток : 6783 Кбит/сек
Дата кодирования : UTC 2018-04-12 23:40:29
Программа кодирования : mkvmerge v9.5.0 ('Quiet Fire') 64bit
Библиотека кодирования : libebml v1.3.4 + libmatroska v1.4.5

Видео
Идентификатор : 1
Формат : AVC
Формат/Информация : Advanced Video Codec
Профиль формата :
Настройки формата : CABAC / 9 Ref Frames
Параметр CABAC формата : Да
Параметр RefFrames формата : 9 кадров
Идентификатор кодека : V_MPEG4/ISO/AVC
Продолжительность : 1 ч. 24 м.
Битрейт : 5500 Кбит/сек
Ширина : 1280 пикселей
Высота : 544 пикселя
Соотношение сторон : 2,35:1
Режим частоты кадров : Постоянный
Частота кадров : 23,976 (24000/1001) кадра/сек
Цветовое пространство : YUV
Субдискретизация насыщенности : 4:2:0
Битовая глубина : 8 бит
Тип развёртки : Прогрессивная
Бит/(Пиксели*Кадры) : 0.329
Размер потока : 3,27 Гбайт (81%)
Библиотека кодирования : x264 core 142 r2479 dd79a61
Настройки программы : cabac=1 / ref=9 / deblock=1:-3:-3 / analyse=0x3:0x133 / me=umh / subme=11 / psy=1 / psy_rd=1.00:0.00 / mixed_ref=1 / me_range=32 / chroma_me=1 / trellis=2 / 8x8dct=1 / cqm=0 / deadzone=21,11 / fast_pskip=1 / chroma_qp_offset=-2 / threads=6 / lookahead_threads=1 / sliced_threads=0 / nr=0 / decimate=1 / interlaced=0 / bluray_compat=0 / constrained_intra=0 / bframes=10 / b_pyramid=2 / b_adapt=2 / b_bias=0 / direct=3 / weightb=1 / open_gop=0 / weightp=0 / keyint=240 / keyint_min=24 / scenecut=40 / intra_refresh=0 / rc_lookahead=50 / rc=2pass / mbtree=1 / bitrate=5500 / ratetol=1.0 / qcomp=0.60 / qpmin=0 / qpmax=69 / qpstep=4 / cplxblur=20.0 / qblur=0.5 / vbv_maxrate=62500 / vbv_bufsize=78125 / nal_hrd=none / filler=0 / ip_ratio=1.40 / aq=1:1.00
Default : Да
Forced : Нет
Цветовой диапазон : Limited
Основные цвета : BT.709
Характеристики трансфера : BT.709
Коэффициенты матрицы : BT.709

Аудио #1
Идентификатор : 2
Формат : AC-3
Формат/Информация : Audio Coding 3
Идентификатор кодека : A_AC3
Продолжительность : 1 ч. 24 м.
Вид битрейта : Постоянный
Битрейт : 640 Кбит/сек
Каналы : 6 каналов
Расположение каналов : Front: L C R, Side: L R, LFE
Частота : 48,0 КГц
Частота кадров : 31,250 кадров/сек (1536 SPF)
Битовая глубина : 16 бит
Метод сжатия : С потерями
Размер потока : 389 Мбайт (9%)
Язык : Russian
Default : Да
Forced : Нет

Аудио #2
Идентификатор : 3
Формат : AC-3
Формат/Информация : Audio Coding 3
Идентификатор кодека : A_AC3
Продолжительность : 1 ч. 24 м.
Вид битрейта : Постоянный
Битрейт : 640 Кбит/сек
Каналы : 6 каналов
Расположение каналов : Front: L C R, Side: L R, LFE
Частота : 48,0 КГц
Частота кадров : 31,250 кадров/сек (1536 SPF)
Битовая глубина : 16 бит
Метод сжатия : С потерями
Размер потока : 389 Мбайт (9%)
Язык : English
Default : Нет
Forced : Нет

Текст #1
Идентификатор : 4
Формат : UTF-8
Идентификатор кодека : S_TEXT/UTF8
Идентификатор кодека/Информация : UTF-8 Plain Text
Продолжительность : 1 ч. 24 м.
Битрейт : 75 бит/сек
ElementCount : 1003
Размер потока : 46,7 Кбайт (0%)
Язык : Russian
Default : Да
Forced : Нет

Текст #2
Идентификатор : 5
Формат : UTF-8
Идентификатор кодека : S_TEXT/UTF8
Идентификатор кодека/Информация : UTF-8 Plain Text
Продолжительность : 1 ч. 16 м.
Битрейт : 51 бит/сек
ElementCount : 982
Размер потока : 28,8 Кбайт (0%)
Язык : English
Default : Нет
Forced : Нет

Текст #3
Идентификатор : 6
Формат : UTF-8
Идентификатор кодека : S_TEXT/UTF8
Идентификатор кодека/Информация : UTF-8 Plain Text
Продолжительность : 1 ч. 17 м.
Битрейт : 60 бит/сек
ElementCount : 1236
Размер потока : 34,5 Кбайт (0%)
Язык : English
Default : Нет
Forced : Нет












   Похожие торренты   Торрент   Размер 
В этой теме нет новых непрочитанных сообщений. Тэд-путешественник и тайна царя Мидаса / Tadeo Jones 2: El secreto del Rey Midas (Давид Алонсо, Энрике Гато) [2017, мультфильм, комедия, приключения, BDRip 1080p] 2xDUB (rus, eng} / Мультфильмы (HD/BD Video)

4 | 0

8.72 ГБ

В этой теме нет новых непрочитанных сообщений. Тэд-путешественник и тайна царя Мидаса / Tadeo Jones 2: El secreto del Rey Midas (Давид Алонсо, Энрике Гато) [2017, мультфильм, комедия, приключения, BDRip] DUB

33 | 0

1.46 ГБ

В этой теме нет новых непрочитанных сообщений. Тэд-путешественник и тайна царя Мидаса / Tadeo Jones 2: El secreto del Rey Midas (Давид Алонсо, Энрике Гато) [2017, мультфильм, комедия, приключения, LowHDRip] DUB

16 | 0

744.96 МБ

В этой теме нет новых непрочитанных сообщений. Тэд-путешественник и тайна царя Мидаса / Tadeo Jones 2: El secreto del Rey Midas (2017) BDRip 1080p от Ash61 | 3D-Video | halfOU | iTunes

0 | 0

5.21 ГБ

В этой теме нет новых непрочитанных сообщений. Тэд-путешественник и тайна царя Мидаса / Tadeo Jones 2: El secreto del Rey Midas (2017) BDRip от ExKinoRay | iTunes

113 | 8

1.42 ГБ

В этой теме нет новых непрочитанных сообщений. Тэд-путешественник и тайна царя Мидаса / Tadeo Jones 2: El secreto del Rey Midas (2017) BDRip от MegaPeer | iTunes

2110 | 61

1.42 ГБ

В этой теме нет новых непрочитанных сообщений. Тэд-путешественник и тайна царя Мидаса / Tadeo Jones 2: El secreto del Rey Midas (2017) BDRip 1080p от ExKinoRay | iTunes

1091 | 129

7.88 ГБ




Вы не можете начинать темы
Вы не можете отвечать на сообщения
Вы не можете редактировать свои сообщения
Вы не можете удалять свои сообщения
Вы не можете добавлять вложения

Перейти:  
 Вход
ppkBB3cker v.2 © 2008-2014 @ PPK
[ Time : 0.033s | 16 Queries | GZIP : Off ]

cron