img image001 image001 image001 image001 image001 image001 image001 image001 image001 image001 image001 image001 image001 image001 image001 image001

Planets Sun Sun Sun
Статистика раздачи
Автор: Снежана | Размер: 1.92 ГБ | Добавлен: 09 окт 2018
Раздают: 14    Качают: 0
Скачать торрент
Скачать торрент
Описание торрента

СообщениеДобавлено: 09 окт 2018 

38 попугаев

Страна: СССР
Жанр: Мультфильм
Год выпуска: 1976 – 1979
Продолжительность: 10х - 00:08:00
Перевод: Не требуется
Режиссер: Иван Уфимцев
Роли озвучивали: Надежда Румянцева, Михаил Козаков, Василий Ливанов, Всеволод Ларионов...
Описание: Веселые и увлекательные истории о забавных приключениях четырех друзей — болтливой Мартышки, застенчивого Слоненка, разумного Попугая и задумчивого Удава — уже давно дарят радость все поклонникам российской мультипликации.

Кодек: х264
Качество: DVDRip-AVC
Видео: MPEG-4 AVC, 718х572@765x572, 25 fps, 2500 Кбит/с
Аудио: АС3, 6 сh, 448 Кбит/с, АС3, 1 сh, 224 Кбит/с

1. 38 попугаев
2. Куда идет слоненок
3. Как лечить удава?
4. Бабушка удава
5. А вдруг получится!
6. Великое закрытие
7. Привет мартышке
8. Ненаглядное пособие
9. Зарядка для хвоста
10. Завтра будет завтра


x264 [info]: frame I:81 Avg QP:17.53 size: 71894
x264 [info]: frame P:3230 Avg QP:19.70 size: 31909
x264 [info]: frame B:10027 Avg QP:21.05 size: 5814
Общее
Уникальный идентификатор : 239170676156523842765551297931781011802 (0xB3EE98C185C333F6BCCD1FF0084AF95A)
Полное имя : I:Мульти-пульти38 Попугаев1.38 попугаев 1976_DVDRip-AVC.mkv
Формат : Matroska
Версия формата : Version 2
Размер файла : 181 Мбайт
Продолжительность : 7 м. 57 с.
Общий поток : 3183 Кбит/сек
Дата кодирования : UTC 2018-09-19 16:08:45
Программа кодирования : mkvmerge v5.8.0 ('No Sleep / Pillow') built on Sep 2 2012 15:37:04
Библиотека кодирования : libebml v1.2.3 + libmatroska v1.3.0
Видео
Идентификатор : 1
Формат : AVC
Формат/Информация : Advanced Video Codec
Профиль формата : High@L4.1
Настройки формата : CABAC / 15 Ref Frames
Параметр CABAC формата : Да
Параметр RefFrames формата : 15 кадров
Идентификатор кодека : V_MPEG4/ISO/AVC
Продолжительность : 7 м. 57 с.
Битрейт : 2500 Кбит/сек
Ширина : 718 пикселей
Высота : 572 пикселя
Соотношение сторон : 4:3
Соотношение сторон в оригинале : 4:3
Режим частоты кадров : Постоянный
Частота кадров : 25,000 кадров/сек
Цветовое пространство : YUV
Субдискретизация насыщенности : 4:2:0
Битовая глубина : 8 бит
Тип развёртки : Прогрессивная
Бит/(Пиксели*Кадры) : 0.243
Размер потока : 139 Мбайт (77%)
Библиотека кодирования : x264 core 152 r2851kMod ba24899
Настройки программы : cabac=1 / ref=15 / deblock=1:-2:-2 / analyse=0x3:0x133 / me=umh / subme=11 / psy=1 / fade_compensate=0.00 / psy_rd=1.00:0.05 / mixed_ref=1 / me_range=48 / chroma_me=1 / trellis=2 / 8x8dct=1 / cqm=0 / deadzone=21,11 / fast_pskip=0 / chroma_qp_offset=-3 / threads=12 / lookahead_threads=2 / sliced_threads=0 / nr=0 / decimate=0 / interlaced=0 / bluray_compat=0 / constrained_intra=0 / bframes=8 / b_pyramid=2 / b_adapt=2 / b_bias=0 / direct=3 / weightb=1 / open_gop=0 / weightp=2 / keyint=250 / keyint_min=25 / scenecut=40 / intra_refresh=0 / rc_lookahead=40 / rc=2pass / mbtree=0 / bitrate=2500 / ratetol=1.0 / qcomp=0.60 / qpmin=0 / qpmax=39 / qpstep=4 / cplxblur=20.0 / qblur=0.5 / vbv_maxrate=50000 / vbv_bufsize=62500 / nal_hrd=none / filler=0 / ip_ratio=1.25 / pb_ratio=1.30 / aq=1:0.90
Язык : English
Default : Да
Forced : Нет
Цветовой диапазон : Limited
Основные цвета : BT.601 PAL
Характеристики трансфера : BT.470 System B, BT.470 System G
Коэффициенты матрицы : BT.470 System B, BT.470 System G
Аудио #1
Идентификатор : 2
Формат : AC-3
Формат/Информация : Audio Coding 3
Параметр Endianness формата : Big
Идентификатор кодека : A_AC3
Продолжительность : 7 м. 57 с.
Вид битрейта : Постоянный
Битрейт : 448 Кбит/сек
Каналы : 6 каналов
Расположение каналов : Front: L C R, Side: L R, LFE
Частота : 48,0 КГц
Частота кадров : 31,250 кадров/сек (1536 SPF)
Битовая глубина : 16 бит
Метод сжатия : С потерями
Задержка видео : 1 с. 107 мс.
Размер потока : 25,5 Мбайт (14%)
Язык : Russian
Default : Да
Forced : Нет
Аудио #2
Идентификатор : 3
Формат : AC-3
Формат/Информация : Audio Coding 3
Параметр Endianness формата : Big
Идентификатор кодека : A_AC3
Продолжительность : 7 м. 57 с.
Вид битрейта : Постоянный
Битрейт : 224 Кбит/сек
Каналы : 1 канал
Расположение каналов : Front: C
Частота : 48,0 КГц
Частота кадров : 31,250 кадров/сек (1536 SPF)
Битовая глубина : 16 бит
Метод сжатия : С потерями
Задержка видео : 1 с. 107 мс.
Размер потока : 12,7 Мбайт (7%)
Язык : Russian
Default : Нет
Forced : Нет





   Похожие торренты   Торрент   Размер 
В этой теме нет новых непрочитанных сообщений. AC/DC - With Bon Scott (1976-1979) (2011) DVDRip

107 | 11

2.05 ГБ

В этой теме нет новых непрочитанных сообщений. Приключения капитана Врунгеля (1976-1979) DVDRip от Alekxandr48

26 | 9

2.05 ГБ

В этой теме нет новых непрочитанных сообщений. Boney M. at Sopot Festival, Poland 1979 (1979) DVDRip от MediaClub | КПК

149 | 19

248.12 МБ

В этой теме нет новых непрочитанных сообщений. Планета попугаев / Planet Parrot (2014) HDTVRip 720p | P 1

5 | 0

1.58 ГБ

В этой теме нет новых непрочитанных сообщений. Harry James - The Harry James Sessions: 1976, 1979 (2013) MP3 от BestSound ExKinoRay

1 | 0

217.49 МБ

В этой теме нет новых непрочитанных сообщений. Планета попугаев / Planet Parrot (Мэтт Хэмилтон) [2014, документальный, флора, фауна, HDTV 1080i] VO / Blu-Ray / BDRip / HDTV

4 | 5

2.79 ГБ

В этой теме нет новых непрочитанных сообщений. Буденовка (1976) DVDRip

100 | 2

1.11 ГБ




Вы не можете начинать темы
Вы не можете отвечать на сообщения
Вы не можете редактировать свои сообщения
Вы не можете удалять свои сообщения
Вы не можете добавлять вложения

Перейти:  
 Вход
ppkBB3cker v.2 © 2008-2014 @ PPK
[ Time : 0.020s | 15 Queries | GZIP : Off ]

cron