img image001 image001 image001 image001 image001 image001 image001 image001 image001 image001 image001 image001 image001 image001 image001 image001

Planets Sun Sun Sun
Статистика раздачи
Автор: Снежана | Размер: 5.36 ГБ | Добавлен: 09 окт 2018
Раздают: 0    Качают: 0
Скачать торрент
Скачать торрент
Описание торрента

СообщениеДобавлено: 09 окт 2018 




Анонсы 1080p от qqss44



Информация о фильме
Название: Монстры на каникулах 3: Море зовёт
Оригинальное название: Hotel Transylvania 3: Summer Vacation
Год выпуска: 2018
Жанр: Мультфильм, фэнтези, комедия, семейный, полнометражный
Режиссер: Генндий Тартаковский
В ролях: Мэл Брукс, Адам Сэндлер, Селена Гомес, Энди Сэмберг, Кэтрин Хан, Фрэн Дрешер, Стив Бушеми, Дэвид Спейд, Тара Стронг, Кигэн-Майкл Ки
О фильме:
На этот раз Дракула вместе со своими друзьями отправляется в круиз на шикарном лайнере. Развлечения там на любой вкус: от монстробаскетбола и экзотических экскурсий, до лунных ванн. Неожиданно Дракула влюбляется в капитана корабля — загадочную и прекрасную Эрику, и его дочка Мэвис понимает, что поездка может превратиться в кошмар: ведь Эрика хранит ужасный секрет, который ставит под угрозу существование всех монстров!

Страна: США
Студия: Columbia Pictures, Media Rights Capital (MRC), Sony Pictures Animation
Продолжительность: 01:37:23
Перевод: Дублированный | iTunes
Файл
Формат: MKV, BDRip 1080p
Видео: MPEG-4 AVC, 7500 Кбит/с, 1920x1036
Aудио#1: [RUS] AC3 | 48 KHz | 5.1 (Front: L С R Side: L R) + LFE | ~384 kbps
Субтитры: русские форсированные и полные
Релиз от:


Общее
Уникальный идентификатор : 217577381933522408091992669496985655626 (0xA3AFE1277BAF1F5A9F93E71C4CBE194A)
Полное имя : H:Hotel.transylvania.3.(2018).BDRip-1080p.MegaPeer.(qqss44).mkv
Формат : Matroska
Версия формата : Version 2
Размер файла : 5,36 Гбайт
Продолжительность : 1 ч. 37 м.
Общий поток : 7884 Кбит/сек
Название фильма : Hotel.transylvania.3.(2018).BDRip-1080p.MegaPeer.(qqss44)
Дата кодирования : UTC 2018-09-30 09:20:55
Программа кодирования : mkvmerge v7.8.0 ('River Man') 32bit built on Apr 3 2015 12:11:22
Библиотека кодирования : libebml v1.3.1 + libmatroska v1.4.2
Видео
Идентификатор : 1
Формат : AVC
Формат/Информация : Advanced Video Codec
Профиль формата : High@L4.1
Параметр CABAC формата : Да
Параметр ReFrames формата : 4 кадра
Идентификатор кодека : V_MPEG4/ISO/AVC
Продолжительность : 1 ч. 37 м.
Битрейт : 7500 Кбит/сек
Ширина : 1920 пикселей
Высота : 1036 пикселей
Соотношение сторон : 1,85:1
Режим частоты кадров : Постоянный
Частота кадров : 23,976 (24000/1001) кадра/сек
Цветовое пространство : YUV
Субдискретизация насыщенности : 4:2:0
Битовая глубина : 8 бит
Тип развёртки : Прогрессивная
Бит/(Пиксели*Кадры) : 0.157
Размер потока : 5,00 Гбайт (93%)
Библиотека кодирования : x264 core 152 r2851 ba24899
Настройки программы : cabac=1 / ref=4 / deblock=1:0:0 / analyse=0x3:0x113 / me=umh / subme=11 / psy=1 / psy_rd=1.00:0.00 / mixed_ref=1 / me_range=32 / chroma_me=1 / trellis=2 / 8x8dct=1 / cqm=0 / deadzone=21,11 / fast_pskip=0 / chroma_qp_offset=-2 / threads=12 / lookahead_threads=2 / sliced_threads=0 / nr=0 / decimate=0 / interlaced=0 / bluray_compat=0 / constrained_intra=0 / bframes=8 / b_pyramid=2 / b_adapt=2 / b_bias=0 / direct=3 / weightb=1 / open_gop=0 / weightp=2 / keyint=250 / keyint_min=23 / scenecut=40 / intra_refresh=0 / rc_lookahead=40 / rc=2pass / mbtree=0 / bitrate=7500 / ratetol=1.0 / qcomp=0.70 / qpmin=0 / qpmax=69 / qpstep=4 / cplxblur=20.0 / qblur=0.5 / vbv_maxrate=50000 / vbv_bufsize=62500 / nal_hrd=none / filler=0 / ip_ratio=1.40 / pb_ratio=1.30 / aq=3:0.80
Язык : English
Default : Да
Forced : Нет
Аудио
Идентификатор : 2
Формат : AC-3
Формат/Информация : Audio Coding 3
Расширение режима : CM (complete main)
Параметр Endianness формата : Big
Идентификатор кодека : A_AC3
Продолжительность : 1 ч. 37 м.
Вид битрейта : Постоянный
Битрейт : 384 Кбит/сек
Каналы : 6 каналов
Расположение каналов : Front: L C R, Side: L R, LFE
Частота : 48,0 КГц
Частота кадров : 31,250 кадров/сек (1536 spf)
Метод сжатия : С потерями
Размер потока : 267 Мбайт (5%)
Язык : Russian
Default : Да
Forced : Нет
Текст #1
Идентификатор : 3
Формат : UTF-8
Идентификатор кодека : S_TEXT/UTF8
Идентификатор кодека/Информация : UTF-8 Plain Text
Заголовок : FORCED
Язык : Russian
Default : Да
Forced : Нет
Текст #2
Идентификатор : 4
Формат : UTF-8
Идентификатор кодека : S_TEXT/UTF8
Идентификатор кодека/Информация : UTF-8 Plain Text
Заголовок : FULL
Язык : Russian
Default : Нет
Forced : Нет
Меню
00:00:00.000 : en:00:00:00.000
00:04:28.935 : en:00:04:28.935
00:09:34.824 : en:00:09:34.824
00:16:02.044 : en:00:16:02.044
00:20:03.077 : en:00:20:03.077
00:24:34.932 : en:00:24:34.932
00:31:12.537 : en:00:31:12.537
00:36:49.207 : en:00:36:49.207
00:44:04.725 : en:00:44:04.725
00:49:57.703 : en:00:49:57.703
00:54:49.745 : en:00:54:49.745
01:00:34.881 : en:01:00:34.881
01:06:12.010 : en:01:06:12.010
01:10:32.270 : en:01:10:32.270
01:13:46.380 : en:01:13:46.380
01:24:56.550 : en:01:24:56.550



   Похожие торренты   Торрент   Размер 
В этой теме нет новых непрочитанных сообщений. Монстры на каникулах 3: Море зовёт / Hotel Transylvania 3: Summer Vacation (2018) BDRemux 1080p | iTunes

0 | 0

18.86 ГБ

В этой теме нет новых непрочитанных сообщений. Монстры на каникулах 3: Море зовёт / Hotel Transylvania 3: Summer Vacation (2018) BDRip-AVC от HELLYWOOD | iTunes

0 | 0

1.4 ГБ

В этой теме нет новых непрочитанных сообщений. Монстры на каникулах 3: Море зовёт / Hotel Transylvania 3: Summer Vacation (2018) BDRip от ExKinoRay | iTunes

226 | 7

1.42 ГБ

В этой теме нет новых непрочитанных сообщений. Монстры на каникулах 3: Море зовёт / Hotel Transylvania 3: Summer Vacation (2018) BDRip-AVC от HELLYWOOD | iTunes

0 | 0

2.14 ГБ

В этой теме нет новых непрочитанных сообщений. Монстры на каникулах 3: Море зовёт / Hotel Transylvania 3: Summer Vacation (2018) BDRip 720p от Scarabey | iTunes

371 | 16

3.39 ГБ

В этой теме нет новых непрочитанных сообщений. Монстры на каникулах 3: Море зовёт / Hotel Transylvania 3: Summer Vacation (2018) HDRip-AVC | iTunes

0 | 0

744.38 МБ

В этой теме нет новых непрочитанных сообщений. Монстры на каникулах 3: Море зовёт / Hotel Transylvania 3: Summer Vacation (2018) HDRip от Scarabey | iTunes

154 | 13

747.04 МБ




Вы не можете начинать темы
Вы не можете отвечать на сообщения
Вы не можете редактировать свои сообщения
Вы не можете удалять свои сообщения
Вы не можете добавлять вложения

Перейти:  
 Вход
ppkBB3cker v.2 © 2008-2014 @ PPK
[ Time : 0.247s | 15 Queries | GZIP : Off ]

cron