img image001 image001 image001 image001 image001 image001 image001 image001 image001 image001 image001 image001 image001 image001 image001 image001

Planets Sun Sun Sun
Статистика раздачи
Автор: Снежана | Размер: 442.49 МБ | Добавлен: 09 окт 2018
Раздают: 0    Качают: 0
Скачать торрент
Скачать торрент
Описание торрента

СообщениеДобавлено: 09 окт 2018 

Информация о фильме
Название: Гриффины
Оригинальное название: Family Guy
Год выхода: 2018
Жанр: Мультсериал, комедия, пародия, чёрный юмор
Режиссер: Сет МакФарлейн
В ролях: Сет МакФарлейн, Алекс Борштейн, Сет Грин, Мила Кунис, Майк Генри, Дэнни Смит, Патрик Варбертон, Джон Винер, Алек Салкин, Ральф Гармен и др.
О фильме:
"Гриффины" (Family Guy) - анимационное ТВ-Шоу, созданное Сетом МакФарлейном (Seth MacFarlane) для телеканала FOX. Как нетрудно догадаться, главными героями шоу является семейка Гриффинов: тупой, но полный сумашедших идей, составляющих львиную долю шуток сериала, отец семейства Питер; его любящя и терпеливая жена Лойс, всеми силами пытающаяся превратить Гриффинов в нормальную семью; их интеллектуально развитый не по годам, вынашивающий идею мирового господства младший сын Стьюи; дочь-ботаник, обречённая из-за этого на одиночество и непонимание как в школе так и дома, Мэг; и 13-ти летний отсталый в развитии лет на 10, сын Крис. Также полноценным членом семьи является пёс Брайн - склонный к меланхолии эстет, спокойно наблюдающий с бокалом вина в лапе над приключениями Питера и остальных членов семьи (и это при всём притом, что остальные собаки в сериале не являются очеловеченными).


Страна: США
Продолжительность: ~ 00:22:00 серия
Перевод: Любительский (многоголосый закадровый) | OMSKBIRD
Файл
Кодек: MPEG-4 AVC
Качество: WEBRip 720p
Видео: AVC, 1280x720 (16:9), 23.976 fps, ~ 3000 kbps
Звук: Аудио rus: AC-3, 48 KHz, 2 ch, 192 kbps | OMSKBIRD records
Семпл
Присутствует реклама!

General
Unique ID : 199518146355516869404039160950129669796 (0x9619CC18AC2911F78D73C390D47BB6A4)
Complete name : H:Мои ДокументыВидеоРАЗДАЧИГРИФФИНЫFamily Guy S17 WEBRip 720p (OMSKBIRD)Family Guy S17E01 WEBRip 720p (OMSKBIRD).mkv
Format : Matroska
Format version : Version 2
File size : 442 MiB
Duration : 22 min 15 s
Overall bit rate : 2 780 kb/s
Encoded date : UTC 2018-10-01 17:08:46
Writing application : mkvmerge v4.0.0 ('The Stars were mine') сборка от Jun 6 2010 16:18:42
Writing library : libebml v1.0.0 + libmatroska v1.0.0
Video
ID : 1
Format : AVC
Format/Info : Advanced Video Codec
Format profile : Main@L4.1
Format settings, CABAC : Yes
Format settings, RefFrames : 3 frames
Codec ID : V_MPEG4/ISO/AVC
Duration : 22 min 15 s
Bit rate : 2 532 kb/s
Width : 1 280 pixels
Height : 720 pixels
Display aspect ratio : 16:9
Frame rate mode : Constant
Frame rate : 23.976 (24000/1001) FPS
Standard : NTSC
Color space : YUV
Chroma subsampling : 4:2:0
Bit depth : 8 bits
Scan type : Progressive
Bits/(Pixel*Frame) : 0.115
Stream size : 403 MiB (91%)
Language : English
Default : Yes
Forced : No
Color range : Limited
Color primaries : BT.709
Transfer characteristics : BT.709
Matrix coefficients : BT.709
Audio
ID : 2
Format : AC-3
Format/Info : Audio Coding 3
Format settings, Endianness : Big
Codec ID : A_AC3
Duration : 22 min 15 s
Bit rate mode : Constant
Bit rate : 192 kb/s
Channel(s) : 2 channels
Channel positions : Front: L R
Sampling rate : 48.0 kHz
Frame rate : 31.250 FPS (1536 SPF)
Bit depth : 16 bits
Compression mode : Lossy
Stream size : 30.6 MiB (7%)
Service kind : Complete Main
Default : Yes
Forced : No
Внимание! Раздача ведётся путём добавления новых серий; при каждом добавлении создаётся новый торрент. Чтобы начать докачку новой серии, пользователям необходимо сделать следующее:
Остановить скачивание.
Удалить старый торрент у себя из клиента (старые серии удалять не надо).
Скачать новый торрент и запустить его у себя в клиенте вместо старого, при этом указать клиенту путь в старую папку куда и должно происходить скачивание новых серий.
Ваш клиент при этом должен произвести хеширование (проверку) старой папки (если не производит сам - помогите ему сделать это), и будет докачивать только те серии которых у вас ещё нет. Старые серии при этом не удаляются, а продолжают раздаваться!
Eсли вы уже удалили старые серии, то предотвратить повторную закачку старых серий можно, отжав галочку в соответсвующих местах при запуске нового торрента. По возможности, желательно не удалять старые серии как можно дольше чтобы релизёр не столько продолжал раздавать старые серии, а смог сконцентрироваться на новых.



   Похожие торренты   Торрент   Размер 
В этой теме нет новых непрочитанных сообщений. Гриффины / Family Guy [17x01 из 20] (2018) WEBRip | OMSKBIRD

0 | 0

216.11 МБ

В этой теме нет новых непрочитанных сообщений. Гриффины / Family Guy [17x01 из 20] (2018) WEBRip 1080p | OMSKBIRD

20 | 6

503.26 МБ

В этой теме нет новых непрочитанных сообщений. Гриффины / Family Guy [17x01 из 20] (2018) WEBRip 720p | ColdFilm

0 | 0

995.9 МБ

В этой теме нет новых непрочитанных сообщений. Гриффины / Family Guy [17x01 из 20] (2018) WEBRip | ColdFilm

0 | 0

544.09 МБ

В этой теме нет новых непрочитанных сообщений. Гриффины / Family Guy [17x01 из 20] (2018) WEBRip 1080p | ColdFilm

0 | 0

1.38 ГБ

В этой теме нет новых непрочитанных сообщений. Гриффины / Family Guy [17x01-02 из 20] (2018) WEB-DLRip (2018) WEB-DL 720p | Jaskier

4 | 8

1.14 ГБ

В этой теме нет новых непрочитанных сообщений. Гриффины / Family Guy [17x01] (2018) WEB-DL 1080p | Filiza

48 | 6

428.67 МБ




Вы не можете начинать темы
Вы не можете отвечать на сообщения
Вы не можете редактировать свои сообщения
Вы не можете удалять свои сообщения
Вы не можете добавлять вложения

Перейти:  
 Вход
ppkBB3cker v.2 © 2008-2014 @ PPK
[ Time : 0.021s | 16 Queries | GZIP : Off ]

cron