img image001 image001 image001 image001 image001 image001 image001 image001 image001 image001 image001 image001 image001 image001 image001 image001

Planets Sun Sun Sun
Статистика раздачи
Автор: Снежана | Размер: 468.9 МБ | Добавлен: 09 окт 2018
Раздают: 0    Качают: 0
Скачать торрент
Скачать торрент
Описание торрента

СообщениеДобавлено: 09 окт 2018 

Информация о фильме
Название: Симпсоны
Оригинальное название: The Simpsons
Год выхода: 2018
Жанр: Комедия, сатира
Режиссер: Марк Керклэнд, Стивен Дин Мур, Боб Андерсон
В ролях: Дэн Кастелланета, Джули Кавнер, Нэнси Картрайт, Ярдли Смит, Гарри Ширер, Хэнк Азария, Памела Хейден, Тресс МакНилл, Карл Видерготт, Мэгги Росвэлл и др.
О фильме:
«Симпсоны» - это пародия на всех и вся, и на типичный американский уклад жизни в целом. Главные герои этого мультсериала - показательная в своей типичности семья Симпсонов - обжора и лежебока, недалекий Гомер, его жена-умница домохозяйка Мардж, их дети сорванец Барт, одаренная умная девочка Лиза и совсем еще младенец Мэгги. Каждая серия не только богата юмором, но и высмеивает одну из волнующих современного человека тем, так что сериал с успехом пережил более 25 сезонов и продолжает успешное шествие по экранам. Отрезки, шутки, сами герои Симпсонов стали неотъемлемой частью современной поп-культуры, а их имена стали именами нарицательными.

Страна: США
Продолжительность: ~ 00:22:00 серия
Перевод: Любительский (многоголосый закадровый) | OMSKBIRD records
Файл
Кодек: MPEG-4 AVC/x.264
Качество: WEBRip 720p
Видео: AVC, 1280x720 (16:9), 23.976 fps, ~3000 kbps
Звук:
Аудио rus: AC-3, 48 KHz, 2 ch, 192 kbps | OMSKBIRD records
Реклама: присутствуют аудио вставки рекламы
Семпл
General
Unique ID : 57139875184379133206833582325790881640 (0x2AFCBD5A983A46CCBFAD5F4DAA673768)
Complete name : G:The.Simpsons.S30.720p.WEBRip.OmskBirdThe.Simpsons.S30E01.720p.WEBRip.OmskBird.mkv
Format : Matroska
Format version : Version 4 / Version 2
File size : 469 MiB
Duration : 21 min 35 s
Overall bit rate : 3 035 kb/s
Encoded date : UTC 2018-10-02 03:12:58
Writing application : mkvmerge v27.0.0 ('Metropolis') 64-bit
Writing library : libebml v1.3.6 + libmatroska v1.4.9
Video
ID : 1
Format : AVC
Format/Info : Advanced Video Codec
Format profile : Main@L4.1
Format settings : CABAC / 3 Ref Frames
Format settings, CABAC : Yes
Format settings, RefFrames : 3 frames
Codec ID : V_MPEG4/ISO/AVC
Duration : 21 min 35 s
Bit rate : 2 841 kb/s
Width : 1 280 pixels
Height : 720 pixels
Display aspect ratio : 16:9
Frame rate mode : Constant
Frame rate : 23.976 (24000/1001) FPS
Standard : NTSC
Color space : YUV
Chroma subsampling : 4:2:0
Bit depth : 8 bits
Scan type : Progressive
Bits/(Pixel*Frame) : 0.129
Stream size : 439 MiB (94%)
Language : English
Default : Yes
Forced : No
Color range : Limited
Color primaries : BT.709
Transfer characteristics : BT.709
Matrix coefficients : BT.709
Audio
ID : 2
Format : AC-3
Format/Info : Audio Coding 3
Codec ID : A_AC3
Duration : 21 min 35 s
Bit rate mode : Constant
Bit rate : 192 kb/s
Channel(s) : 2 channels
Channel positions : Front: L R
Sampling rate : 48.0 kHz
Frame rate : 31.250 FPS (1536 SPF)
Bit depth : 16 bits
Compression mode : Lossy
Stream size : 29.7 MiB (6%)
Title : OmskBird
Language : Russian
Service kind : Complete Main
Default : Yes
Forced : No

Внимание! Раздача ведётся путём добавления новых серий; при каждом добавлении создётся новый торрент. Чтобы начать докачку новой серии, пользователям необходимо сделать следующее:
Остановить скачивание.
Удалить старый торрент у себя из клиента (старые серии удалять не надо).
Скачать новый торрент и запустить его у себя в клиенте вместо старого, при этом указать клиенту путь в старую папку куда и должно происходить скачивание новых серий.
Ваш клиент при этом должен произвести хеширование (проверку) старой папки (если не производит сам - помогите ему сделать это), и будет докачивать только те серии которых у вас ещё нет. Старые серии при этом не удаляются, а продолжают раздаваться!
Eсли вы уже удалили старые серии, то предотвратить повторную закачку старых серий можно, отжав галочку в соответсвующих местах при запуске нового торрента. По возможности, желательно не удалять старые серии как можно дольше чтобы релизёр не столько продолжал раздавать старые серии, а смог сконцентрироваться на новых.

Релиз от: OmckBird



   Похожие торренты   Торрент   Размер 
В этой теме нет новых непрочитанных сообщений. Симпсоны / The Simpsons [30x01 из 21] (2018) WEBRip | OMSKBIRD

0 | 0

303.62 МБ

В этой теме нет новых непрочитанных сообщений. Симпсоны / The Simpsons [30x01 из 21] (2018) WEBRip 1080p | OMSKBIRD

0 | 0

698.23 МБ

В этой теме нет новых непрочитанных сообщений. Симпсоны / The Simpsons [30x01 из 21] (2018) WEBRip 720p | ColdFilm

0 | 0

1.03 ГБ

В этой теме нет новых непрочитанных сообщений. Симпсоны / The Simpsons [30x01 из 21] (2018) WEBRip | ColdFilm

0 | 0

537.32 МБ

В этой теме нет новых непрочитанных сообщений. Симпсоны / The Simpsons [30x01 из 21] (2018) WEBRip 1080p | ColdFilm

0 | 0

1.41 ГБ

В этой теме нет новых непрочитанных сообщений. Симпсоны / The Simpsons [30x01-04 из 21] (2018) WEBRip | GreenРай Studio

0 | 0

1.06 ГБ

В этой теме нет новых непрочитанных сообщений. Симпсоны / The Simpsons [30x01-04 из 21] (2018) WEBRip 1080p | GreenРай Studio

0 | 0

3.24 ГБ




Вы не можете начинать темы
Вы не можете отвечать на сообщения
Вы не можете редактировать свои сообщения
Вы не можете удалять свои сообщения
Вы не можете добавлять вложения

Перейти:  
 Вход
ppkBB3cker v.2 © 2008-2014 @ PPK
[ Time : 0.025s | 16 Queries | GZIP : Off ]

cron